<?xml version="1.0" standalone="no"?>
<!DOCTYPE svg PUBLIC "-//W3C//DTD SVG 1.1//EN" "http://www.w3.org/Graphics/SVG/1.1/DTD/svg11.dtd" >
<svg xmlns="http://www.w3.org/2000/svg">
<metadata></metadata>
<defs>
<font id="nexa_xboldregular" horiz-adv-x="612" >
<font-face units-per-em="1000" ascent="750" descent="-250" />
<missing-glyph horiz-adv-x="242" />
<glyph unicode=" "  horiz-adv-x="242" />
<glyph unicode="&#x09;" horiz-adv-x="242" />
<glyph unicode="&#xa0;" horiz-adv-x="242" />
<glyph unicode="!" horiz-adv-x="288" d="M78 699h131v-516h-131v516zM64 72q0 50 40 70.5t80 0t40 -70.5t-40 -70t-80 0t-40 70z" />
<glyph unicode="&#x22;" horiz-adv-x="424" d="M67 698h111v-268h-111v268zM245 698h112v-268h-112v268z" />
<glyph unicode="#" horiz-adv-x="702" d="M253 700h134l-37 -150h109l38 150h133l-37 -150h72v-116h-101l-47 -182h79v-117h-106l-33 -135h-134l33 135h-110l-33 -135h-133l33 135h-76v117h106l46 183h-83v115h110zM441 443h-126l-50 -198h126z" />
<glyph unicode="$" horiz-adv-x="698" d="M632 582l-108 -50q-19 32 -68 54t-101 22q-69 0 -114 -22.5t-45 -71.5q0 -24 12.5 -40t39 -25.5t49.5 -13.5t62 -9q38 -5 63 -9t60 -12t57.5 -18t48 -26.5t40 -37t24 -50.5t9.5 -67q0 -96 -69 -154.5t-168 -65.5v-100h-127v95q-90 8 -159.5 50.5t-103.5 120.5l118 50 q20 -47 77.5 -76t121.5 -29q74 0 123.5 27t49.5 82q0 80 -176 101q-52 6 -85.5 12t-75 20t-65.5 35t-40.5 56.5t-16.5 83.5q0 91 67 142t165 63v87h127v-87q152 -23 208 -137z" />
<glyph unicode="%" horiz-adv-x="776" d="M198 713q45 0 80 -17.5t53 -45t26.5 -61t0 -67t-26.5 -61t-53 -45t-80 -17.5t-80 17.5t-53 45t-26.5 61t0 67t26.5 61t53 45t80 17.5zM545 701h141l-460 -702h-142zM578 307q45 0 80 -17.5t53 -45t26.5 -61t0 -67t-26.5 -61t-53 -45t-80 -17.5t-80 17.5t-53 45t-26.5 61 t0 67t26.5 61t53 45t80 17.5zM578 215q-30 0 -47.5 -20.5t-17.5 -45t17.5 -45t47.5 -20.5t47.5 20.5t17.5 45t-17.5 45t-47.5 20.5zM198 622q-30 0 -47.5 -20.5t-17.5 -45t17.5 -45t47.5 -20.5t47.5 20.5t17.5 45t-17.5 45t-47.5 20.5z" />
<glyph unicode="&#x26;" horiz-adv-x="712" d="M322 306q-67 0 -103.5 -29t-36.5 -65q0 -52 42.5 -77.5t103.5 -25.5q47 0 96.5 24.5t49.5 71.5v101h-152zM599 306v-102q0 -33 15.5 -54.5t47.5 -21.5v-131q-107 0 -132 92q-60 -98 -200 -98q-277 0 -278 222q0 45 30 87.5t78 58.5q-44 14 -69 55.5t-25 86.5 q0 70 42 119.5t100 70t125 20.5q49 0 92 -10t81 -32t60.5 -62t22.5 -94h-125q0 45 -37.5 65.5t-96.5 20.5q-70 0 -103.5 -30.5t-32.5 -67.5q0 -47 44 -69t91 -22h328v-104h-58z" />
<glyph unicode="'" horiz-adv-x="245" d="M67 699h111v-268h-111v268z" />
<glyph unicode="(" horiz-adv-x="354" d="M273 734l61 -82q-83 -66 -126.5 -161t-43.5 -203q0 -227 170 -361l-66 -89q-113 74 -171.5 195.5t-58.5 254.5q0 130 60.5 250t174.5 196z" />
<glyph unicode=")" horiz-adv-x="354" d="M20 656l61 82q114 -76 174.5 -196t60.5 -250q0 -133 -58.5 -254.5t-171.5 -195.5l-64 91q168 132 168 359q0 108 -43.5 203t-126.5 161z" />
<glyph unicode="*" horiz-adv-x="415" d="M343 467l-75 -56l-60 87l-59 -87l-76 56l66 78l-94 19l28 93l92 -35l-5 94h95l-10 -96l98 37l26 -93l-96 -19z" />
<glyph unicode="+" horiz-adv-x="513" d="M48 403h147v149h121v-149h149v-111h-149v-150h-121v150h-147v111z" />
<glyph unicode="," horiz-adv-x="252" d="M197 52q0 -12 -45 -150h-69l19 99q-47 8 -47 54q0 43 35.5 60t71 -1.5t35.5 -61.5z" />
<glyph unicode="-" horiz-adv-x="493" d="M62 233v112h369v-112h-369z" />
<glyph unicode="." horiz-adv-x="252" d="M54 63q0 34 22.5 53t49.5 19t49.5 -19t22.5 -53t-22.5 -53t-49.5 -19t-49.5 19t-22.5 53z" />
<glyph unicode="/" horiz-adv-x="509" d="M358 766h128l-334 -848h-127z" />
<glyph unicode="0" horiz-adv-x="710" d="M185 404v-108q0 -46 14.5 -83t38.5 -60t54.5 -35.5t62.5 -12.5t62.5 12.5t54.5 35.5t38.5 60t14.5 83v108q0 51 -19 92t-48.5 62t-66 31t-73 0t-66 -30.5t-48.5 -61.5t-19 -93zM54 296v108q0 76 26 137t68 98.5t96.5 58t110.5 20t110.5 -20.5t96.5 -57.5t68 -99 t26 -136.5v-108q0 -75 -26 -136.5t-68 -99t-96.5 -57.5t-110.5 -20.5t-110.5 20t-96.5 58t-68 98.5t-26 137z" />
<glyph unicode="1" horiz-adv-x="449" d="M53 0v112h122v420l-116 -34v120l247 82v-588h116v-112h-369z" />
<glyph unicode="2" horiz-adv-x="678" d="M189 497h-131q5 59 31.5 102t69 66t89 33.5t100.5 10.5q52 0 98 -11t86.5 -35t64 -67.5t23.5 -102.5q0 -52 -15.5 -91t-41 -63t-62.5 -39t-76 -20.5t-86 -5.5q-35 0 -66 -6t-58.5 -28t-27.5 -57v-60h435v-123h-567v184q0 58 24.5 100t66.5 65t90 33.5t103 10.5q23 0 46 4 t48 14t40.5 30t15.5 49q0 100 -141 105q-64 0 -110.5 -24.5t-48.5 -73.5z" />
<glyph unicode="3" horiz-adv-x="679" d="M341 305h-109v108h101q62 0 104 19.5t43 64.5q0 37 -34 65t-110 28q-34 0 -65.5 -7.5t-56 -28t-24.5 -50.5h-132q0 71 44 119.5t104.5 67.5t130.5 19q110 0 192 -54.5t83 -158.5q0 -49 -26 -86.5t-71 -51.5q51 -17 82.5 -57t31.5 -90q0 -49 -18 -88.5t-47 -64 t-68.5 -40.5t-79.5 -22.5t-83 -6.5q-53 0 -101.5 11.5t-91 36t-68 67.5t-25.5 100h133q0 -48 50 -72.5t104 -24.5q59 0 107.5 26t48.5 77q0 94 -149 94z" />
<glyph unicode="4" horiz-adv-x="668" d="M341 699h201v-438h82v-128h-82v-133h-130v133h-374l-12 134zM175 261h237v324z" />
<glyph unicode="5" horiz-adv-x="656" d="M574 699v-124h-378v-123h136q58 0 107 -12.5t89 -38t62.5 -70.5t22.5 -104q0 -113 -80 -174t-194 -61q-127 0 -206.5 52t-80.5 167h131q0 -52 46.5 -74.5t107.5 -22.5q56 0 100.5 28t44.5 85q1 54 -43 78t-107 24h-265v370h507z" />
<glyph unicode="6" horiz-adv-x="694" d="M194 481v4v-105q22 34 69.5 54t92.5 20q56 0 105 -12.5t91.5 -38.5t67.5 -72.5t25 -109.5q0 -109 -87 -170.5t-203 -61.5q-75 0 -139.5 25t-108.5 79.5t-44 129.5v261q0 110 85 169.5t203 59.5q124 0 205.5 -51.5t81.5 -155.5h-132q0 44 -46 68.5t-107 24.5 q-63 1 -111 -31.5t-48 -86.5zM355 107q67 0 113 29.5t46 84.5q0 56 -44.5 87t-113.5 31q-70 0 -116.5 -31t-45.5 -87q1 -55 46.5 -84.5t114.5 -29.5z" />
<glyph unicode="7" horiz-adv-x="562" d="M239 0h-152l286 574h-341v126h514l7 -70z" />
<glyph unicode="8" horiz-adv-x="704" d="M352 309q-67 0 -115 -25.5t-49 -74.5q-1 -43 43 -74t121 -31t121 30.5t43 74.5q-1 49 -47 74.5t-117 25.5zM50 211q1 44 28.5 87t78.5 63q-88 47 -88 138q0 101 81 157t201 56t203.5 -56.5t83.5 -156.5q0 -40 -23 -77t-67 -55q50 -20 77.5 -65.5t28.5 -90.5 q2 -114 -86 -171t-217 -56q-81 1 -147 22t-110.5 74t-43.5 131zM204 503q1 -44 44.5 -71t103.5 -27q62 0 104.5 26.5t43.5 71.5q1 44 -40.5 71.5t-108.5 27.5q-70 0 -109.5 -30t-37.5 -69z" />
<glyph unicode="9" horiz-adv-x="695" d="M501 221v-4v105q-22 -34 -69.5 -54t-92.5 -20q-56 0 -105 12.5t-91.5 38.5t-67.5 72.5t-25 109.5q0 109 87 170.5t203 61.5q75 0 139.5 -25t108.5 -79.5t44 -129.5v-261q0 -110 -85 -169.5t-203 -59.5q-80 0 -143.5 20.5t-105.5 68.5t-42 118h132q0 -44 47.5 -68.5 t109.5 -24.5q63 -1 111 31.5t48 86.5zM340 595q-67 0 -113 -29.5t-46 -84.5q0 -56 44.5 -87t113.5 -31q70 0 116.5 31t45.5 87q-1 55 -46.5 84.5t-114.5 29.5z" />
<glyph unicode=":" horiz-adv-x="266" d="M62 63q0 44 35.5 62.5t71 0t35.5 -62.5t-35.5 -62t-71 0t-35.5 62zM62 353q0 44 35.5 62.5t71 0t35.5 -62.5t-35.5 -62t-71 0t-35.5 62z" />
<glyph unicode=";" horiz-adv-x="271" d="M66 353q0 44 35.5 62.5t71 0t35.5 -62.5t-35.5 -62t-71 0t-35.5 62zM206 52q0 -12 -45 -150h-69l19 99q-47 8 -47 54q0 43 35.5 60t71 -1.5t35.5 -61.5z" />
<glyph unicode="&#x3c;" horiz-adv-x="397" d="M185 314l158 -151l-79 -84l-230 228v15l230 228l79 -84z" />
<glyph unicode="=" horiz-adv-x="566" d="M67 143v110h432v-110h-432zM67 369v111h432v-111h-432z" />
<glyph unicode="&#x3e;" horiz-adv-x="398" d="M55 157l158 157l-158 158l79 78l230 -228v-15l-230 -228z" />
<glyph unicode="?" horiz-adv-x="604" d="M192 75q0 50 40 70.5t80 0t40 -70.5t-40 -70t-80 0t-40 70zM167 490h-134q1 105 77 159.5t190 54.5q74 0 133 -20.5t97.5 -69.5t37.5 -121q0 -41 -13.5 -72t-37.5 -50t-47 -31t-51.5 -24.5t-41.5 -21.5q-38 -25 -38 -93l-132 1q0 49 9 83.5t27.5 56.5t33 32t40.5 24 q12 6 39 17.5t39.5 18.5t24 23t11.5 37q0 95 -133 95q-51 0 -90.5 -27t-40.5 -72z" />
<glyph unicode="@" horiz-adv-x="925" d="M465 564q-139 0 -233 -88t-94 -233q0 -82 26 -143t72 -96t102 -52t122 -17q85 0 148 38l38 -74q-83 -49 -189 -49q-63 0 -121.5 14t-111.5 45t-92.5 76t-63 111.5t-23.5 146.5q0 95 35 173t94 127.5t134 76t157 26.5q189 0 306 -100t117 -295q0 -121 -48 -191t-135 -70 q-38 0 -69.5 21.5t-31.5 72.5q-15 -41 -60 -64t-84 -23q-109 0 -182.5 69t-73.5 177q0 98 61 166.5t155 80.5q53 5 103 -13.5t74 -61.5l8 51l86 -13v-357q0 -11 10 -17t19 -3q76 25 76 172q0 316 -331 316zM457 386q-66 0 -101 -42t-35 -100t35.5 -99t101.5 -41 q65 0 101 41.5t36 103.5q0 60 -35.5 98.5t-102.5 38.5z" />
<glyph unicode="A" horiz-adv-x="778" d="M631 0l-59 132h-366l-60 -132h-143l314 700h144l314 -700h-144zM519 255l-130 298l-130 -298h260z" />
<glyph unicode="B" horiz-adv-x="722" d="M213 303v-180h202q31 0 58.5 6.5t50 26.5t22.5 51q0 44 -42.5 70t-88.5 26h-202zM213 580v-161h202q110 0 110 75q0 31 -27 58.5t-83 27.5h-202zM415 700q109 0 175 -51t66 -152q0 -94 -91 -135q55 -17 83.5 -65.5t28.5 -90.5q0 -206 -262 -206h-332v700h332z" />
<glyph unicode="C" horiz-adv-x="700" d="M590 179l90 -91q-105 -104 -266 -104q-94 0 -167 30.5t-116.5 82t-65.5 114.5t-22 134q0 70 22.5 135t67 118t117.5 84.5t164 31.5q148 0 257 -107l-88 -85q-67 66 -169 66q-118 0 -180 -72.5t-61 -170.5t61 -167.5t180 -69.5q47 0 94.5 18.5t81.5 52.5z" />
<glyph unicode="D" horiz-adv-x="751" d="M358 700q87 0 155 -29t109.5 -78.5t63 -109.5t22.5 -127q1 -68 -19.5 -130.5t-62 -113.5t-111 -81.5t-157.5 -30.5h-275v700h275zM214 575v-448h144q111 0 166 67.5t53 162.5q-2 91 -57.5 154.5t-161.5 63.5h-144z" />
<glyph unicode="E" horiz-adv-x="665" d="M607 130v-130h-524v700h524v-128h-393v-161h379v-123h-379v-158h393z" />
<glyph unicode="F" horiz-adv-x="627" d="M215 0h-132v699h503v-127h-371v-191h351v-122h-351v-259z" />
<glyph unicode="G" horiz-adv-x="743" d="M672 613l-82 -84q-34 33 -82.5 51.5t-95.5 18.5q-110 0 -175.5 -73.5t-65.5 -184.5q0 -97 60 -165.5t181 -68.5q88 0 158 56v124h-179v118h300v-295q-110 -126 -279 -126q-95 0 -168 29.5t-116 80.5t-64.5 113.5t-21.5 133.5q0 102 40 186t125.5 138.5t204.5 54.5 q151 0 260 -107z" />
<glyph unicode="H" horiz-adv-x="773" d="M690 -1h-131v283h-344v-283h-132v700h132v-295h344v295h131v-700z" />
<glyph unicode="I" horiz-adv-x="297" d="M214 0h-131v700h131v-700z" />
<glyph unicode="J" horiz-adv-x="710" d="M636 700v-401q0 -139 -83 -226t-225 -87q-138 0 -222.5 80t-84.5 225h130q0 -181 177 -181q86 0 131 52.5t45 136.5v278h-211v123h343z" />
<glyph unicode="K" horiz-adv-x="666" d="M645 700v-4l-311 -335l337 -353v-8h-163l-293 310v-310h-132v700h132v-296l266 296h164z" />
<glyph unicode="L" horiz-adv-x="592" d="M83 700h132v-578h360v-122h-492v700z" />
<glyph unicode="M" horiz-adv-x="907" d="M692 -1v508l-228 -304h-26l-223 305v-509h-132v700h152l219 -301l219 301h151v-700h-132z" />
<glyph unicode="N" horiz-adv-x="777" d="M190 700l372 -471v471h132v-700h-107l-372 466v-466h-132v700h107z" />
<glyph unicode="O" horiz-adv-x="802" d="M405 714q86 -1 156 -32.5t113 -84t65.5 -117t21.5 -134.5t-23 -133.5t-64.5 -115t-112.5 -82.5t-159 -31t-159.5 30t-113.5 81.5t-65 115t-22 134.5q0 163 104 266t259 103zM172 343q3 -98 59.5 -168t170.5 -70t170.5 70.5t58.5 168.5t-56 173t-170 77q-109 0 -172.5 -72 t-60.5 -179z" />
<glyph unicode="P" horiz-adv-x="696" d="M215 575v-248h198q60 0 94 38.5t33.5 85.5t-34 85.5t-93.5 38.5h-198zM413 206h-198v-206h-132v700q55 0 165 0.5t165 0.5t101.5 -17t77 -45.5t51.5 -65.5t25.5 -77.5t0 -81.5t-25.5 -78.5t-51 -66t-76.5 -46t-102.5 -17.5z" />
<glyph unicode="Q" horiz-adv-x="804" d="M403 717q89 0 159 -30.5t112 -81.5t64.5 -113.5t23.5 -132.5q2 -132 -65 -228l83 -82l-93 -93l-85 84q-81 -52 -199 -52q-90 0 -160.5 31t-113 83t-64.5 115.5t-22 133.5t22 134.5t65 117t113.5 83.5t159.5 31zM403 598q-59 0 -105.5 -22t-73 -59t-39.5 -80t-12 -89 q2 -95 62.5 -166.5t167.5 -71.5q111 0 172 77t57 176q-2 45 -15 85t-39 74.5t-71 55t-104 20.5z" />
<glyph unicode="R" horiz-adv-x="728" d="M703 9v-9h-151l-203 234h-134v-234h-132v701q55 0 166 -0.5t167 -0.5q118 -1 185 -68.5t67 -163.5q0 -80 -42 -140.5t-135 -79.5zM416 577h-201v-224h201q59 0 89.5 33t30.5 79t-31 79t-89 33z" />
<glyph unicode="S" horiz-adv-x="664" d="M605 585l-105 -54q-19 32 -65.5 55t-100.5 23q-71 0 -108 -26t-37 -67q0 -29 23 -47.5t54 -26.5t79 -14q49 -6 86 -14t76 -24.5t63.5 -39t40.5 -60t16 -85.5q0 -75 -42 -126.5t-106.5 -74t-145.5 -22.5q-235 0 -305 172l110 57q22 -55 75.5 -83t121.5 -28q69 0 115 26 t46 79q0 86 -162 103q-61 7 -104.5 18.5t-85.5 34.5t-63.5 63t-21.5 96q0 68 42 116t101 67.5t128 20.5q207 0 275 -139z" />
<glyph unicode="T" horiz-adv-x="610" d="M239 0v580h-222v120h576v-120h-222v-580h-132z" />
<glyph unicode="U" horiz-adv-x="762" d="M557 699h131v-401q0 -151 -83 -232t-220 -81q-134 0 -222.5 81t-88.5 232v401h131v-401q0 -93 49 -143t132 -50q81 0 126 51t45 142v401z" />
<glyph unicode="V" horiz-adv-x="731" d="M725 700l-291 -703h-137l-291 703h148l211 -545l212 545h148z" />
<glyph unicode="W" horiz-adv-x="1073" d="M1061 700l-252 -700h-112l-87 220l-74 221l-73 -223l-85 -218h-112l-257 700h148l165 -505l170 505h86l175 -505l160 505h148z" />
<glyph unicode="X" horiz-adv-x="670" d="M335 439l175 261h145v-6l-237 -340l244 -350v-4h-148l-179 263l-179 -263h-148v4l243 350l-236 340v6h145z" />
<glyph unicode="Y" horiz-adv-x="695" d="M168 700l178 -289l186 289h159v-6l-279 -405v-289h-132v289l-269 405v6h157z" />
<glyph unicode="Z" horiz-adv-x="620" d="M51 579v121h529v-62l-363 -513h363v-125h-547v76l355 503h-337z" />
<glyph unicode="[" horiz-adv-x="352" d="M317 -179h-241v888h241v-108h-118v-670h118v-110z" />
<glyph unicode="\" horiz-adv-x="509" d="M23 766h128l333 -848h-127z" />
<glyph unicode="]" horiz-adv-x="352" d="M276 -178h-241v110h118v670h-118v108h241v-888z" />
<glyph unicode="^" horiz-adv-x="643" d="M41 333v6l238 363h77l246 -362v-7h-134l-150 230l-151 -230h-126z" />
<glyph unicode="_" horiz-adv-x="594" d="M61 -110v107h472v-107h-472z" />
<glyph unicode="`" horiz-adv-x="237" d="M-7 694v5h144l74 -136v-6h-108z" />
<glyph unicode="a" horiz-adv-x="638" d="M451 425l4 68h117v-493h-115l-6 72q-20 -40 -67 -63t-93 -24q-113 -1 -183.5 67.5t-70.5 194.5q0 123 72.5 191t184.5 67q50 0 93 -22t64 -58zM305 396q-63 0 -104.5 -40t-41.5 -109t41.5 -109.5t104.5 -40.5q55 0 92.5 31t46 74.5t0 87.5t-46 75t-92.5 31z" />
<glyph unicode="b" horiz-adv-x="638" d="M339 391q-59 0 -101 -40.5t-42 -103.5q0 -65 41.5 -105t101.5 -40q59 0 99.5 40.5t40.5 104.5q0 65 -40 104.5t-100 39.5zM66 699h122v-273q20 36 69.5 57.5t92.5 21.5q112 0 181.5 -67t69.5 -191q0 -119 -71.5 -188.5t-182.5 -69.5q-108 0 -159 79l-8 -68h-114v699z" />
<glyph unicode="c" horiz-adv-x="506" d="M407 143l82 -80q-79 -78 -190 -78q-113 0 -187.5 67.5t-74.5 193.5t74.5 193.5t187.5 67.5q104 0 178 -73l-77 -81q-44 39 -99 39q-62 0 -102 -41t-40 -105q0 -68 40 -106t100 -38q67 0 108 41z" />
<glyph unicode="d" horiz-adv-x="638" d="M299 391q-60 0 -100 -39.5t-40 -104.5q0 -64 40.5 -104.5t99.5 -40.5q60 0 101.5 40t41.5 105q0 63 -42 103.5t-101 40.5zM450 699h122v-699h-114l-8 68q-51 -79 -159 -79q-111 0 -182.5 69.5t-71.5 188.5q0 124 69.5 191t181.5 67q43 0 92.5 -21.5t69.5 -57.5v273z" />
<glyph unicode="e" horiz-adv-x="581" d="M548 203h-385q6 -47 45 -76t102 -29q36 0 74 12.5t58 33.5l78 -77q-37 -39 -95 -59.5t-117 -20.5q-126 0 -198.5 71.5t-72.5 191.5q0 114 71.5 186t190.5 72q127 0 195 -78.5t54 -226.5zM165 304h266q-6 47 -40 71.5t-88 24.5q-51 0 -88 -24.5t-50 -71.5z" />
<glyph unicode="f" horiz-adv-x="398" d="M238 0h-122v379h-92v107h92v33q0 94 54 143.5t134 49.5q66 0 128 -40l-45 -91q-40 26 -75 26q-33 0 -53.5 -22.5t-20.5 -65.5v-33h145v-107h-145v-379z" />
<glyph unicode="g" horiz-adv-x="617" d="M434 478l55 68l90 -68l-62 -72q57 -68 57 -147q0 -129 -122 -185q122 -44 122 -160q0 -67 -40.5 -115.5t-100 -70.5t-128.5 -22q-128 0 -199 60.5t-67 166.5h121q-3 -49 40 -78.5t105 -30.5q56 0 99 23.5t43 66.5q0 45 -36 71t-104 26q-123 0 -196.5 66.5t-73.5 181.5 q0 118 79.5 184t190.5 66q81 0 127 -31zM307 396q-64 0 -106 -35.5t-42 -101.5q0 -62 43 -99t105 -37t103.5 37t41.5 99t-41.5 99.5t-103.5 37.5z" />
<glyph unicode="h" horiz-adv-x="603" d="M66 700h122v-274q57 74 154 74q102 0 152 -63.5t50 -176.5v-260h-122v259q0 65 -30.5 96.5t-81.5 31.5q-53 0 -87.5 -39t-34.5 -96v-252h-122v700z" />
<glyph unicode="i" horiz-adv-x="254" d="M188 495h-122v-495h122v495zM55 632q0 34 22.5 53t49.5 19t49.5 -19t22.5 -53t-22.5 -53t-49.5 -19t-49.5 19t-22.5 53z" />
<glyph unicode="j" horiz-adv-x="253" d="M187 495h-121v-547q0 -43 -10 -62t-39 -20q-27 -1 -59 14l-44 -95q50 -33 109 -33q83 0 123.5 48t40.5 148v547zM55 633q0 34 22.5 53t49.5 19t49.5 -19t22.5 -53t-22.5 -53t-49.5 -19t-49.5 19t-22.5 53z" />
<glyph unicode="k" horiz-adv-x="529" d="M66 699h122v-404l166 198h146v-7l-201 -225l229 -252v-9h-147l-193 223v-223h-122v699z" />
<glyph unicode="l" horiz-adv-x="259" d="M69 699h121v-699h-121v699z" />
<glyph unicode="m" horiz-adv-x="897" d="M516 0h-122v264q0 52 -26.5 88t-74.5 36t-76.5 -36.5t-28.5 -87.5v-264h-122v494h113l9 -60q18 35 54 51.5t76 16.5q108 0 146 -92q57 90 165 90q104 0 156.5 -60.5t52.5 -173.5v-266h-122v266q0 53 -23 86.5t-70 33.5q-48 0 -77.5 -35.5t-29.5 -86.5v-264z" />
<glyph unicode="n" horiz-adv-x="613" d="M554 0h-122v258q0 58 -31 95t-88 37q-55 0 -90.5 -40t-35.5 -98v-252h-121v494h109l8 -67q76 74 162 74q90 0 149.5 -64.5t59.5 -177.5v-259z" />
<glyph unicode="o" horiz-adv-x="585" d="M291 503q115 0 186.5 -74t71.5 -183q0 -110 -70 -183.5t-187 -73.5t-186.5 73.5t-69.5 183.5q0 109 70 183t185 74zM292 392q-63 0 -98.5 -43t-35.5 -103t35.5 -102.5t98.5 -42.5t98.5 42.5t35.5 102.5q0 58 -37.5 102t-96.5 44z" />
<glyph unicode="p" horiz-adv-x="637" d="M339 106q61 0 100.5 40.5t39.5 99.5q0 60 -38 100t-102 40t-102 -40t-38 -100q0 -59 39.5 -99.5t100.5 -40.5zM188 -226h-122v719h114l8 -68q27 39 71 59t89 20q112 0 182.5 -73.5t70.5 -184.5q0 -112 -67 -185t-182 -73q-47 0 -93.5 16.5t-70.5 53.5v-284z" />
<glyph unicode="q" horiz-adv-x="637" d="M298 106q61 0 100.5 40.5t39.5 99.5q0 60 -38 100t-102 40t-102 -40t-38 -100q0 -59 39.5 -99.5t100.5 -40.5zM571 -226h-122v284q-24 -37 -70.5 -53.5t-93.5 -16.5q-115 0 -182 73t-67 185q0 111 70.5 184.5t182.5 73.5q45 0 89 -20t71 -59l8 68h114v-719z" />
<glyph unicode="r" horiz-adv-x="453" d="M66 493h113l9 -57q26 42 60 56t79 14q80 0 127 -47l-55 -106q-38 32 -88 32q-53 0 -88 -30.5t-35 -94.5v-260h-122v493z" />
<glyph unicode="s" horiz-adv-x="497" d="M444 442l-68 -80q-47 44 -122 44q-90 0 -90 -49q0 -48 92 -54q33 -2 58.5 -6t55.5 -14.5t50 -27t33.5 -44.5t13.5 -66q0 -69 -55.5 -115.5t-156.5 -46.5q-68 0 -123 18t-105 70l60 87q64 -67 170 -69q37 -1 63 13.5t26 40.5q0 51 -98 57q-39 3 -72 11.5t-64.5 25 t-49.5 46.5t-18 70q0 41 19.5 72t51 48t66.5 25.5t71 8.5q118 0 192 -65z" />
<glyph unicode="t" horiz-adv-x="415" d="M121 619l122 13v-140h136v-105h-137v-213q0 -34 17.5 -52t46.5 -18t59 15l34 -104q-49 -20 -101 -21q-82 -3 -129.5 43.5t-47.5 136.5v213h-92v105h92v127z" />
<glyph unicode="u" d="M58 493h122v-258q0 -58 31 -95t88 -37q55 0 90.5 40t35.5 98v252h121v-494h-109l-8 67q-75 -74 -167 -74q-91 0 -147.5 65t-56.5 177v259z" />
<glyph unicode="v" horiz-adv-x="576" d="M431 494h133l-210 -496h-132l-211 496h133l68 -163l76 -208l75 206z" />
<glyph unicode="w" horiz-adv-x="855" d="M374 494h107l108 -371l113 371h135l-172 -496h-142l-51 146l-44 165l-44 -165l-51 -146h-142l-173 496h136l113 -371z" />
<glyph unicode="x" horiz-adv-x="528" d="M264 326l97 167h146v-4l-162 -239l172 -247v-3h-146l-107 165l-107 -165h-146v3l172 247l-162 239v4h146z" />
<glyph unicode="y" horiz-adv-x="565" d="M421 493h135l-310 -719h-134l101 234l-197 485h142l75 -213l47 -139l51 136z" />
<glyph unicode="z" horiz-adv-x="485" d="M48 493h395v-58l-227 -315h229v-120h-415v51l236 331h-218v111z" />
<glyph unicode="{" horiz-adv-x="356" d="M318 -55v-95q-109 -20 -163 23.5t-54 141.5v140q0 84 -70 84v91q70 0 70 84v140q0 98 54 141.5t163 23.5v-95q-48 13 -68.5 -5t-20.5 -71v-134q0 -64 -8 -83q-15 -33 -62 -47q25 -7 40.5 -18t21.5 -29.5t7 -31.5t1 -40v-10v-134q0 -53 17 -67.5t72 -8.5z" />
<glyph unicode="|" horiz-adv-x="272" d="M195 752v-836h-118v836h118z" />
<glyph unicode="}" horiz-adv-x="357" d="M38 -153v95q55 -6 72 8.5t17 67.5v134v10q0 27 1 40t7 31.5t21.5 29.5t40.5 18q-25 7 -40.5 18.5t-21.5 29.5t-7 31t-1 40v11v134q0 53 -20.5 71t-68.5 5v95q109 20 163 -23.5t54 -141.5v-140q0 -84 70 -84v-91q-70 0 -70 -84v-140q0 -98 -54 -141.5t-163 -23.5z" />
<glyph unicode="~" d="M467 373l89 -30q-24 -74 -74.5 -111.5t-120.5 -12.5q-18 6 -70 38t-79 32q-46 0 -70 -57l-82 31q19 66 61 96.5t95 30.5q43 0 101 -35t74 -40q47 -14 76 58z" />
<glyph unicode="&#xa1;" horiz-adv-x="269" d="M69 -232h131v516h-131v-516zM214 395q0 -50 -40 -70.5t-80 0t-40 70.5t40 70t80 0t40 -70z" />
<glyph unicode="&#xa2;" horiz-adv-x="539" d="M420 138l75 -88q-60 -57 -134 -71v-70h-113v72q-89 20 -144.5 90t-55.5 163q0 91 54.5 161.5t145.5 91.5v73h113v-72q77 -15 133 -70l-71 -79q-20 20 -52.5 32t-60.5 12q-58 0 -99.5 -43t-41.5 -106q0 -62 41.5 -105t99.5 -43q26 0 57.5 15t52.5 37z" />
<glyph unicode="&#xa3;" horiz-adv-x="662" d="M243 480q0 -35 16 -103h207v-111h-184q4 -41 -11.5 -82t-53.5 -59h392v-125h-552v125q48 12 71 49.5t21 91.5h-92v111h71q-18 70 -18 101q0 110 68 171.5t187 61.5q109 0 172.5 -51.5t68.5 -159.5h-121q-9 95 -119 95q-65 0 -94 -32t-29 -83z" />
<glyph unicode="&#xa4;" horiz-adv-x="621" d="M213 128l-58 -59l-92 91l58 57q-49 97 4 196l-62 59l92 92l58 -59q46 19 97.5 19t96.5 -20l60 60l91 -92l-58 -58q49 -102 1 -197l57 -57l-90 -90l-59 58q-94 -40 -196 0zM310 208q49 0 77 32t28 76t-28 76t-77 32q-47 0 -76.5 -32.5t-29.5 -75.5t29.5 -75.5t76.5 -32.5z " />
<glyph unicode="&#xa5;" horiz-adv-x="738" d="M144 117v95h155v51h-155v97h108l-222 334v6h157l178 -289l186 289h159v-6l-230 -334h105v-97h-154v-51h154v-95h-154v-117h-132v117h-155z" />
<glyph unicode="&#xa6;" horiz-adv-x="279" d="M202 341h-125v369h125v-369zM77 278h125v-369h-125v369z" />
<glyph unicode="&#xa7;" horiz-adv-x="618" d="M53 78l79 83q67 -73 174 -71q50 0 88.5 16t39.5 40q1 14 -15 24t-44.5 15t-64.5 5q-47 -1 -91 7.5t-82 25.5t-59.5 48.5t-19.5 72.5q2 29 25 58t64 42q-43 9 -63.5 41t-18.5 66q2 45 28.5 78.5t67.5 50t82 24t84 7.5q64 0 125.5 -18.5t97.5 -59.5l-81 -68q-55 40 -146 41 q-51 1 -89 -13.5t-39 -38.5q-1 -18 19 -29.5t46 -16t55 -4.5q49 0 89.5 -6t81 -21t62 -47.5t17.5 -79.5q-3 -31 -27 -59.5t-59 -38.5q42 -12 64.5 -44.5t20.5 -62.5q-2 -45 -30 -78.5t-69.5 -51t-83 -26t-79.5 -8.5q-168 0 -249 97zM438 347q1 24 -24 40t-62 20t-74.5 0 t-64.5 -20t-28 -39q-1 -22 24 -37t62 -18t74.5 0.5t64.5 18t28 35.5z" />
<glyph unicode="&#xa8;" horiz-adv-x="511" d="M49 655q0 44 35 62t70 0t35 -62q0 -43 -35 -61t-70 0t-35 61zM298 655q0 44 35 62t70 0t35 -62q0 -43 -35 -61t-70 0t-35 61z" />
<glyph unicode="&#xa9;" horiz-adv-x="823" d="M415 719q168 0 264.5 -105t96.5 -260t-96.5 -260t-264.5 -105t-268 105.5t-100 259.5t100 259.5t268 105.5zM431 161q80 0 145 63l-65 61q-35 -35 -80 -35q-46 0 -78 27.5t-32 74.5q0 50 31.5 78.5t78.5 28.5q45 0 79 -33l64 59q-62 62 -143 62q-88 0 -145.5 -52.5 t-57.5 -142.5t57.5 -140.5t145.5 -50.5zM153 354q0 -116 71.5 -193t190.5 -77t187 76.5t68 193.5t-68 193.5t-187 76.5t-190.5 -77t-71.5 -193z" />
<glyph unicode="&#xaa;" horiz-adv-x="437" d="M299 656l2 44h91v-323h-90l-3 47q-13 -26 -44 -41t-61 -16q-75 0 -121 45t-46 127q0 81 47.5 125.5t121.5 43.5q32 0 60.5 -14t42.5 -38zM205 623q-35 0 -58.5 -22.5t-23.5 -61.5t23.5 -61.5t58.5 -22.5q38 0 60 26.5t22 57.5t-22 57.5t-60 26.5zM39 233v87h355v-87h-355 z" />
<glyph unicode="&#xab;" horiz-adv-x="519" d="M35 297l139 221h130l-138 -221l138 -222h-130zM211 297l139 221h130l-138 -221l138 -222h-130z" />
<glyph unicode="&#xac;" horiz-adv-x="535" d="M462 382v-231h-105v127h-290v104h395z" />
<glyph unicode="&#xae;" horiz-adv-x="817" d="M408 716q168 0 265 -105t97 -260t-97 -260t-265 -105q-167 0 -264 105t-97 260t97 260t264 105zM153 351q1 -117 69 -193.5t186 -76.5q119 0 187 76.5t68 193.5t-68 193.5t-187 76.5q-118 0 -186 -76.5t-69 -193.5zM586 189l-91 112q38 9 61 36t23.5 60t-12.5 64.5 t-47.5 52.5t-80.5 21h-175v-367h97v114h34l87 -114h104v21zM361 448h78q27 0 38 -21t0 -42t-38 -21h-78v84z" />
<glyph unicode="&#xaf;" horiz-adv-x="453" d="M35 600v102h358v-102h-358z" />
<glyph unicode="&#xb0;" horiz-adv-x="357" d="M44 595q0 60 40.5 93.5t94.5 33.5t94 -33.5t40 -93.5t-40 -93.5t-95 -33.5t-94.5 33.5t-39.5 93.5zM179 650q-22 0 -37.5 -11.5t-19 -28t0 -32.5t18.5 -27.5t37 -11.5t37 11.5t18.5 27.5t0 32.5t-18 28t-36.5 11.5z" />
<glyph unicode="&#xb1;" horiz-adv-x="537" d="M64 320v114h143v148h122v-148h144v-114h-144v-148h-122v148h-143zM64 19v111h409v-111h-409z" />
<glyph unicode="&#xb2;" horiz-adv-x="371" d="M127 657h-88q1 55 43.5 84.5t98.5 29.5q70 0 111.5 -29.5t41.5 -89.5q0 -43 -21.5 -68.5t-52 -34t-61 -13t-52 -14.5t-21.5 -30v-11h203v-85h-292v96q0 41 21.5 65t52 32.5t61 14t52 16.5t21.5 32q0 42 -62 42q-23 0 -39 -9.5t-17 -27.5z" />
<glyph unicode="&#xb3;" horiz-adv-x="378" d="M187 551h-57v67h53q32 0 46.5 7.5t15.5 31.5q0 7 -4 15t-19 16t-38 8q-58 0 -67 -36h-78q0 55 44 83t102 28t103 -29.5t46 -84.5q0 -24 -12.5 -45t-35.5 -28q26 -8 41.5 -30t15.5 -46q0 -42 -26 -70.5t-60.5 -39t-73.5 -10.5q-60 0 -105 29t-46 86h92q11 -35 62 -35 q26 0 45 9.5t19 28.5q0 45 -63 45z" />
<glyph unicode="&#xb4;" horiz-adv-x="239" d="M214 699v-5l-110 -137h-108v6l74 136h144z" />
<glyph unicode="&#xb6;" horiz-adv-x="851" d="M402 576v-789h-132v387q-112 11 -175 87.5t-63 174.5q0 107 72.5 185.5t200.5 78.5h507v-124h-93v-789h-132v789h-185z" />
<glyph unicode="&#xb7;" horiz-adv-x="270" d="M59 274q0 47 38 66.5t76 0t38 -66.5t-38 -66.5t-76 0t-38 66.5z" />
<glyph unicode="&#xb8;" horiz-adv-x="382" d="M33 -169l53 45q22 -30 66 -32t53 28q8 29 -24.5 42t-60.5 -7l-29 23l32 94h88l-16 -51q63 -2 87 -36.5t16 -78.5q-12 -55 -64.5 -80t-111.5 -10t-89 63z" />
<glyph unicode="&#xb9;" horiz-adv-x="275" d="M36 396v77h62v192l-53 -12v75l141 36v-291h64v-77h-214z" />
<glyph unicode="&#xba;" horiz-adv-x="412" d="M40 228v87h332v-87h-332zM206 367q-79 0 -128.5 45t-49.5 127q0 81 49.5 125t128.5 44t128.5 -44t49.5 -125q0 -82 -49.5 -127t-128.5 -45zM206 455q35 0 58.5 22.5t23.5 61.5t-23.5 61.5t-58.5 22.5t-58.5 -22.5t-23.5 -61.5t23.5 -61.5t58.5 -22.5z" />
<glyph unicode="&#xbb;" horiz-adv-x="518" d="M345 520l139 -221l-139 -222h-130l138 222l-138 221h130zM169 520l139 -221l-139 -222h-130l138 222l-138 221h130z" />
<glyph unicode="&#xbc;" horiz-adv-x="785" d="M591 367h115v-225h44v-77h-44v-65h-88v65h-192l-4 75zM618 142v140l-105 -140h105zM241 -1h-105l386 708h106zM46 334v77h62v192l-53 -12v75l141 36v-291h64v-77h-214z" />
<glyph unicode="&#xbd;" horiz-adv-x="816" d="M572 257h-88q1 55 43.5 84.5t98.5 29.5q70 0 111.5 -29.5t41.5 -89.5q0 -42 -21 -67t-51 -33t-60.5 -13t-51.5 -15.5t-21 -31.5v-13h198v-83h-290v96q0 41 21.5 65t52 32.5t61 14t52 16.5t21.5 32q0 42 -62 42q-23 0 -39 -9.5t-17 -27.5zM239 -2h-105l386 709h106z M44 334v77h62v192l-53 -12v75l141 36v-291h64v-77h-214z" />
<glyph unicode="&#xbe;" horiz-adv-x="818" d="M627 367h115v-225h42v-77h-42v-65h-88v65h-192l-4 75zM654 142v140l-105 -140h105zM186 501h-55v65h51q31 0 45 7t15 30q0 13 -13.5 25.5t-45.5 12.5q-56 0 -64 -35h-76q0 53 42.5 80t98.5 27q57 0 100 -28.5t44 -81.5q0 -23 -12.5 -43.5t-34.5 -26.5q25 -8 40 -29 t15 -44q0 -60 -46.5 -88t-107.5 -28q-57 0 -100.5 28t-44.5 83h88q11 -34 60 -34q25 0 43.5 9.5t18.5 27.5q0 43 -61 43zM284 -5h-105l388 712h106z" />
<glyph unicode="&#xbf;" horiz-adv-x="597" d="M408 438q0 -50 -40 -70t-79.5 0.5t-39.5 70.5q0 30 16.5 50.5t40 25t47 0t39.5 -25.5t16 -51zM567 23l-134 1q-1 -45 -41 -72t-91 -27q-56 0 -94 21.5t-38 73.5q0 21 11.5 37t24 23t39.5 18.5t39 17.5q26 14 40.5 24t33 32t27.5 56.5t9 83.5v5l-132 1l1 -5 q-1 -69 -39 -93q-13 -9 -53 -28t-66 -34.5t-49 -51.5t-23 -84q-2 -106 74.5 -159t193.5 -53q113 -1 189.5 53.5t77.5 159.5z" />
<glyph unicode="&#xc0;" horiz-adv-x="778" d="M631 0l-59 132h-366l-60 -132h-143l314 700h144l314 -700h-144zM519 255l-130 298l-130 -298h260zM220 909v5h144l74 -136v-6h-108z" />
<glyph unicode="&#xc1;" horiz-adv-x="778" d="M572 132l59 -132h144l-314 700h-144l-314 -700h143l60 132h366zM389 553l130 -298h-260zM552 914v-5l-110 -137h-108v6l74 136h144z" />
<glyph unicode="&#xc2;" horiz-adv-x="778" d="M631 0l-59 132h-366l-60 -132h-143l314 700h144l314 -700h-144zM519 255l-130 298l-130 -298h260zM211 759l148 138h67l148 -138v-6h-124l-58 59l-57 -59h-124v6z" />
<glyph unicode="&#xc3;" horiz-adv-x="778" d="M631 0l-59 132h-366l-60 -132h-143l314 700h144l314 -700h-144zM519 255l-130 298l-130 -298h260zM285 763l-77 42q43 108 132 88q12 -3 43.5 -19t50.5 -13.5t33 31.5l82 -39q-21 -57 -56 -78.5t-73 -11.5q-12 3 -29 12.5t-29.5 15.5t-26 8.5t-26.5 -6.5t-24 -30z" />
<glyph unicode="&#xc4;" horiz-adv-x="778" d="M572 132l59 -132h144l-314 700h-144l-314 -700h143l60 132h366zM389 553l130 -298h-260zM193 824q0 44 35 62t70 0t35 -62q0 -43 -35 -61t-70 0t-35 61zM442 824q0 44 35 62t70 0t35 -62q0 -43 -35 -61t-70 0t-35 61z" />
<glyph unicode="&#xc5;" horiz-adv-x="779" d="M257 798q0 57 39.5 89t93.5 32q53 0 92.5 -32t39.5 -89q0 -69 -59 -102l313 -696h-144l-59 132h-366l-60 -132h-143l312 696q-59 32 -59 102zM260 255h260l-130 298zM388 850q-36 0 -51 -25.5t0 -51t51 -25.5q37 0 51.5 25.5t-0.5 51t-51 25.5z" />
<glyph unicode="&#xc6;" horiz-adv-x="911" d="M855 127v-127h-419v141h-220l-89 -141h-151l444 700h432v-124h-292v-166h281v-122h-281v-161h295zM290 258h146v125l10 154z" />
<glyph unicode="&#xc7;" horiz-adv-x="703" d="M256 -203l53 45q22 -30 66 -32t53 28q8 29 -24.5 42t-60.5 -7l-29 23l31 93q-149 20 -225 120.5t-77 235.5q0 70 22.5 135t67 118t117.5 84.5t164 31.5q148 0 257 -107l-88 -85q-67 66 -169 66q-118 0 -180 -72.5t-61 -170.5t61 -167.5t180 -69.5q47 0 94.5 18.5 t81.5 52.5l90 -91q-99 -98 -248 -104l-14 -45q63 -2 87 -36.5t16 -78.5q-12 -55 -64.5 -80t-111.5 -10t-89 63z" />
<glyph unicode="&#xc8;" horiz-adv-x="665" d="M607 130v-130h-524v700h524v-128h-393v-161h379v-123h-379v-158h393zM204 914v5h144l74 -136v-6h-108z" />
<glyph unicode="&#xc9;" horiz-adv-x="665" d="M607 0v130h-393v158h379v123h-379v161h393v128h-524v-700h524zM510 913v-5l-110 -137h-108v6l74 136h144z" />
<glyph unicode="&#xca;" horiz-adv-x="665" d="M607 130v-130h-524v700h524v-128h-393v-161h379v-123h-379v-158h393zM188 777l148 138h67l148 -138v-6h-124l-58 59l-57 -59h-124v6z" />
<glyph unicode="&#xcb;" horiz-adv-x="665" d="M607 0v130h-393v158h379v123h-379v161h393v128h-524v-700h524zM162 840q0 44 35 62t70 0t35 -62q0 -43 -35 -61t-70 0t-35 61zM411 840q0 44 35 62t70 0t35 -62q0 -43 -35 -61t-70 0t-35 61z" />
<glyph unicode="&#xcc;" horiz-adv-x="297" d="M214 0h-131v700h131v-700zM-12 901v5h144l74 -136v-6h-108z" />
<glyph unicode="&#xcd;" horiz-adv-x="297" d="M83 0h131v700h-131v-700zM308 906v-5l-110 -137h-108v6l74 136h144z" />
<glyph unicode="&#xce;" horiz-adv-x="297" d="M214 0h-131v700h131v-700zM-31 764l148 138h67l148 -138v-6h-124l-58 59l-57 -59h-124v6z" />
<glyph unicode="&#xcf;" horiz-adv-x="297" d="M-32 828q0 44 35 62t70 0t35 -62q0 -43 -35 -61t-70 0t-35 61zM182 828q0 44 35 62t70 0t35 -62q0 -43 -35 -61t-70 0t-35 61zM83 0h131v700h-131v-700z" />
<glyph unicode="&#xd0;" horiz-adv-x="755" d="M20 293v112h70v295h259q171 0 267 -96t96 -240q0 -74 -22 -138.5t-65.5 -115.5t-114.5 -80.5t-161 -29.5h-259v293h-70zM217 293v-172h132q115 0 174 65t59 174q0 106 -60 163.5t-173 57.5h-132v-176h135v-112h-135z" />
<glyph unicode="&#xd1;" horiz-adv-x="777" d="M190 700l372 -471v471h132v-700h-107l-372 466v-466h-132v700h107zM304 770l-76 41q43 106 129 86q12 -3 43 -18.5t49 -13t32 30.5l80 -38q-21 -55 -54.5 -76.5t-71.5 -11.5q-12 3 -28.5 12t-28 15t-25 8.5t-26 -6t-23.5 -29.5z" />
<glyph unicode="&#xd2;" horiz-adv-x="802" d="M405 714q86 -1 156 -32.5t113 -84t65.5 -117t21.5 -134.5t-23 -133.5t-64.5 -115t-112.5 -82.5t-159 -31t-159.5 30t-113.5 81.5t-65 115t-22 134.5q0 163 104 266t259 103zM172 343q3 -98 59.5 -168t170.5 -70t170.5 70.5t58.5 168.5t-56 173t-170 77q-109 0 -172.5 -72 t-60.5 -179zM256 917v5h144l74 -136v-6h-108z" />
<glyph unicode="&#xd3;" horiz-adv-x="802" d="M405 714q-155 0 -259 -103t-104 -266q0 -71 22 -134.5t65 -115t113.5 -81.5t159.5 -30t159 31t112.5 82.5t64.5 115t23 133.5t-21.5 134.5t-65.5 117t-113 84t-156 32.5zM172 343q-3 107 60.5 179t172.5 72q112 -2 170 -77t56 -173t-58.5 -168.5t-170.5 -70.5t-170.5 70 t-59.5 168zM563 917v-5l-110 -137h-108v6l74 136h144z" />
<glyph unicode="&#xd4;" horiz-adv-x="802" d="M405 714q86 -1 156 -32.5t113 -84t65.5 -117t21.5 -134.5t-23 -133.5t-64.5 -115t-112.5 -82.5t-159 -31t-159.5 30t-113.5 81.5t-65 115t-22 134.5q0 163 104 266t259 103zM172 343q3 -98 59.5 -168t170.5 -70t170.5 70.5t58.5 168.5t-56 173t-170 77q-109 0 -172.5 -72 t-60.5 -179zM232 782l148 138h67l148 -138v-6h-124l-58 59l-57 -59h-124v6z" />
<glyph unicode="&#xd5;" horiz-adv-x="802" d="M405 714q86 -1 156 -32.5t113 -84t65.5 -117t21.5 -134.5t-23 -133.5t-64.5 -115t-112.5 -82.5t-159 -31t-159.5 30t-113.5 81.5t-65 115t-22 134.5q0 163 104 266t259 103zM172 343q3 -98 59.5 -168t170.5 -70t170.5 70.5t58.5 168.5t-56 173t-170 77q-109 0 -172.5 -72 t-60.5 -179zM320 775l-76 41q43 106 129 86q12 -3 43 -18.5t49 -13t32 30.5l80 -38q-21 -55 -54.5 -76.5t-71.5 -11.5q-12 3 -28.5 12t-28 15t-25 8.5t-26 -6t-23.5 -29.5z" />
<glyph unicode="&#xd6;" horiz-adv-x="802" d="M216 838q0 44 35 62t70 0t35 -62q0 -43 -35 -61t-70 0t-35 61zM462 838q0 44 35 62t70 0t35 -62q0 -43 -35 -61t-70 0t-35 61zM405 714q-155 0 -259 -103t-104 -266q0 -71 22 -134.5t65 -115t113.5 -81.5t159.5 -30t159 31t112.5 82.5t64.5 115t23 133.5t-21.5 134.5 t-65.5 117t-113 84t-156 32.5zM172 343q-3 107 60.5 179t172.5 72q112 -2 170 -77t56 -173t-58.5 -168.5t-170.5 -70.5t-170.5 70t-59.5 168z" />
<glyph unicode="&#xd7;" horiz-adv-x="460" d="M137 491l93 -97l97 99l76 -76l-100 -103l103 -102l-76 -73l-101 102l-96 -99l-79 79l98 96l-96 96z" />
<glyph unicode="&#xd8;" horiz-adv-x="802" d="M402 714q70 0 136 -23l45 75h128l-78 -130q63 -52 96 -129t32 -161q-1 -70 -23 -133.5t-64.5 -115t-112.5 -82.5t-159 -31q-80 0 -146 25l-49 -81h-127l82 136q-59 50 -89.5 124t-30.5 157q0 71 23 136t66 117.5t113.5 84t157.5 31.5zM402 105q114 0 170.5 70.5 t58.5 168.5q2 111 -64 183l-247 -411q38 -11 82 -11zM402 594q-78 0 -132.5 -39t-77 -94t-20.5 -118q2 -101 57 -166l245 407q-37 10 -72 10z" />
<glyph unicode="&#xd9;" horiz-adv-x="762" d="M557 699h131v-401q0 -151 -83 -232t-220 -81q-134 0 -222.5 81t-88.5 232v401h131v-401q0 -93 49 -143t132 -50q81 0 126 51t45 142v401zM242 917v5h144l74 -136v-6h-108z" />
<glyph unicode="&#xda;" horiz-adv-x="762" d="M688 699h-131v-401q0 -91 -45 -142t-126 -51q-83 0 -132 50t-49 143v401h-131v-401q0 -151 88.5 -232t222.5 -81q137 0 220 81t83 232v401zM540 921v-5l-110 -137h-108v6l74 136h144z" />
<glyph unicode="&#xdb;" horiz-adv-x="762" d="M557 699h131v-401q0 -151 -83 -232t-220 -81q-134 0 -222.5 81t-88.5 232v401h131v-401q0 -93 49 -143t132 -50q81 0 126 51t45 142v401zM203 783l148 138h67l148 -138v-6h-124l-58 59l-57 -59h-124v6z" />
<glyph unicode="&#xdc;" horiz-adv-x="762" d="M688 699h-131v-401q0 -91 -45 -142t-126 -51q-83 0 -132 50t-49 143v401h-131v-401q0 -151 88.5 -232t222.5 -81q137 0 220 81t83 232v401zM197 835q0 44 35 62t70 0t35 -62q0 -43 -35 -61t-70 0t-35 61zM446 835q0 44 35 62t70 0t35 -62q0 -43 -35 -61t-70 0t-35 61z " />
<glyph unicode="&#xdd;" horiz-adv-x="695" d="M346 411l-178 289h-157v-6l269 -405v-289h132v289l279 405v6h-159zM502 913v-5l-110 -137h-108v6l74 136h144z" />
<glyph unicode="&#xde;" horiz-adv-x="696" d="M83 0l1 699h130v-114h199q82 0 142 -34.5t87 -87t27 -113t-27 -113t-87 -87t-142 -34.5h-198v-116h-132zM215 464v-230h198q60 0 94 36t33.5 79t-34 79t-93.5 36h-198z" />
<glyph unicode="&#xdf;" horiz-adv-x="626" d="M255 2l-1 111q101 -26 154 5.5t53 91.5q0 57 -48 90t-110 33h-47v116h44q43 0 77 15.5t35 50.5q2 42 -30 62.5t-76 20.5q-48 0 -78.5 -22t-31.5 -61v-235q0 -40 0.5 -141t0.5 -139h-131v514q0 92 72 144.5t166 52.5q99 0 168 -51t69 -145q0 -43 -28.5 -77.5t-77.5 -45.5 q80 -18 118 -70t38 -108q0 -134 -97.5 -190t-238.5 -22z" />
<glyph unicode="&#xe0;" horiz-adv-x="638" d="M451 425l4 68h117v-493h-115l-6 72q-20 -40 -67 -63t-93 -24q-113 -1 -183.5 67.5t-70.5 194.5q0 123 72.5 191t184.5 67q50 0 93 -22t64 -58zM305 396q-63 0 -104.5 -40t-41.5 -109t41.5 -109.5t104.5 -40.5q55 0 92.5 31t46 74.5t0 87.5t-46 75t-92.5 31zM164 704v5 h144l74 -136v-6h-108z" />
<glyph unicode="&#xe1;" horiz-adv-x="638" d="M451 425q-21 36 -64 58t-93 22q-112 1 -184.5 -67t-72.5 -191q0 -126 70.5 -194.5t183.5 -67.5q46 1 93 24t67 63l6 -72h115v493h-117zM305 396q55 0 92.5 -31t46 -75t0 -87.5t-46 -74.5t-92.5 -31q-63 0 -104.5 40.5t-41.5 109.5t41.5 109t104.5 40zM444 710v-5 l-110 -137h-108v6l74 136h144z" />
<glyph unicode="&#xe2;" horiz-adv-x="638" d="M451 425l4 68h117v-493h-115l-6 72q-20 -40 -67 -63t-93 -24q-113 -1 -183.5 67.5t-70.5 194.5q0 123 72.5 191t184.5 67q50 0 93 -22t64 -58zM305 396q-63 0 -104.5 -40t-41.5 -109t41.5 -109.5t104.5 -40.5q55 0 92.5 31t46 74.5t0 87.5t-46 75t-92.5 31zM143 575 l148 138h67l148 -138v-6h-124l-58 59l-57 -59h-124v6z" />
<glyph unicode="&#xe3;" horiz-adv-x="638" d="M451 425l4 68h117v-493h-115l-6 72q-20 -40 -67 -63t-93 -24q-113 -1 -183.5 67.5t-70.5 194.5q0 123 72.5 191t184.5 67q50 0 93 -22t64 -58zM305 396q-63 0 -104.5 -40t-41.5 -109t41.5 -109.5t104.5 -40.5q55 0 92.5 31t46 74.5t0 87.5t-46 75t-92.5 31zM234 585 l-76 41q43 106 129 86q12 -3 43 -18.5t49 -13t32 30.5l80 -38q-21 -55 -54.5 -76.5t-71.5 -11.5q-12 3 -28.5 12t-28 15t-25 8.5t-26 -6t-23.5 -29.5z" />
<glyph unicode="&#xe4;" horiz-adv-x="638" d="M451 425q-21 36 -64 58t-93 22q-112 1 -184.5 -67t-72.5 -191q0 -126 70.5 -194.5t183.5 -67.5q46 1 93 24t67 63l6 -72h115v493h-117zM305 396q55 0 92.5 -31t46 -75t0 -87.5t-46 -74.5t-92.5 -31q-63 0 -104.5 40.5t-41.5 109.5t41.5 109t104.5 40zM134 655q0 44 35 62 t70 0t35 -62q0 -43 -35 -61t-70 0t-35 61zM383 655q0 44 35 62t70 0t35 -62q0 -43 -35 -61t-70 0t-35 61z" />
<glyph unicode="&#xe5;" horiz-adv-x="638" d="M451 425l4 68h117v-493h-115l-6 72q-20 -40 -67 -63t-93 -24q-113 -1 -183.5 67.5t-70.5 194.5q0 123 72.5 191t184.5 67q50 0 93 -22t64 -58zM305 396q-63 0 -104.5 -40t-41.5 -109t41.5 -109.5t104.5 -40.5q55 0 92.5 31t46 74.5t0 87.5t-46 75t-92.5 31zM185 675 q0 54 38.5 85t89.5 31t89 -30.5t38 -85.5t-38 -85.5t-89 -30.5t-89.5 31t-38.5 85zM311 725q-35 0 -49 -24.5t0 -49t49 -24.5q27 0 42 15.5t14.5 33.5t-15.5 33.5t-41 15.5z" />
<glyph unicode="&#xe6;" horiz-adv-x="985" d="M949 203h-385q6 -47 45 -76t102 -29q36 0 74 12.5t58 33.5l78 -77q-37 -39 -95 -59.5t-117 -20.5q-112 0 -162 77l-5 -64h-90l-1 72q-20 -40 -67 -63t-93 -24q-113 -1 -183.5 67.5t-70.5 194.5q0 123 72.5 191t184.5 67q50 0 93 -22t64 -58l4 68h92v-62q59 78 171 76 q51 -1 98.5 -23t82.5 -60t49.5 -96t0.5 -125zM305 396q-63 0 -104.5 -40t-41.5 -109t41.5 -109.5t104.5 -40.5q48 0 83 22t51 55.5t16 72t-16 72t-51 55.5t-83 22zM566 304h266q-6 47 -40 71.5t-88 24.5q-51 0 -88 -24.5t-50 -71.5z" />
<glyph unicode="&#xe7;" horiz-adv-x="509" d="M136 -191l53 44q22 -29 66 -31t53 27q8 28 -24 41t-61 -7l-29 22l31 89q-85 20 -136 84t-51 168q0 126 74.5 193.5t187.5 67.5q104 0 178 -73l-77 -81q-43 39 -99 39q-62 0 -102 -41t-40 -105q0 -68 40 -106t100 -38q67 0 108 41l82 -80q-76 -75 -180 -78l-12 -38 q63 -2 87 -35.5t16 -76.5q-9 -40 -43.5 -64t-75.5 -27.5t-82.5 13.5t-63.5 52z" />
<glyph unicode="&#xe8;" horiz-adv-x="581" d="M548 203h-385q6 -47 45 -76t102 -29q36 0 74 12.5t58 33.5l78 -77q-37 -39 -95 -59.5t-117 -20.5q-126 0 -198.5 71.5t-72.5 191.5q0 114 71.5 186t190.5 72q127 0 195 -78.5t54 -226.5zM165 304h266q-6 47 -40 71.5t-88 24.5q-51 0 -88 -24.5t-50 -71.5zM152 708v5h144 l74 -136v-6h-108z" />
<glyph unicode="&#xe9;" horiz-adv-x="581" d="M548 203q14 148 -54 226.5t-195 78.5q-119 0 -190.5 -72t-71.5 -186q0 -120 72.5 -191.5t198.5 -71.5q59 0 117 20.5t95 59.5l-78 77q-20 -21 -58 -33.5t-74 -12.5q-63 0 -102 29t-45 76h385zM165 304q13 47 50 71.5t88 24.5q54 0 88 -24.5t40 -71.5h-266zM443 715v-5 l-110 -137h-108v6l74 136h144z" />
<glyph unicode="&#xea;" horiz-adv-x="581" d="M548 203h-385q6 -47 45 -76t102 -29q36 0 74 12.5t58 33.5l78 -77q-37 -39 -95 -59.5t-117 -20.5q-126 0 -198.5 71.5t-72.5 191.5q0 114 71.5 186t190.5 72q127 0 195 -78.5t54 -226.5zM165 304h266q-6 47 -40 71.5t-88 24.5q-51 0 -88 -24.5t-50 -71.5zM124 575 l148 138h67l148 -138v-6h-124l-58 59l-57 -59h-124v6z" />
<glyph unicode="&#xeb;" horiz-adv-x="581" d="M131 641q0 44 35 62t70 0t35 -62q0 -43 -35 -61t-70 0t-35 61zM344 641q0 44 35 62t70 0t35 -62q0 -43 -35 -61t-70 0t-35 61zM548 203q14 148 -54 226.5t-195 78.5q-119 0 -190.5 -72t-71.5 -186q0 -120 72.5 -191.5t198.5 -71.5q59 0 117 20.5t95 59.5l-78 77 q-20 -21 -58 -33.5t-74 -12.5q-63 0 -102 29t-45 76h385zM165 304q13 47 50 71.5t88 24.5q54 0 88 -24.5t40 -71.5h-266z" />
<glyph unicode="&#xec;" horiz-adv-x="260" d="M22 693v5h131l42 -142v-6h-99zM194 0h-128v476h128v-476z" />
<glyph unicode="&#xed;" horiz-adv-x="260" d="M242 698v-5l-74 -143h-99v6l42 142h131zM66 0h128v476h-128v-476z" />
<glyph unicode="&#xee;" horiz-adv-x="260" d="M194 0h-128v476h128v-476zM-23 558l130 146h58l130 -146v-6h-109l-50 62l-50 -62h-109v6z" />
<glyph unicode="&#xef;" horiz-adv-x="260" d="M-24 639q0 44 35 62t70 0t35 -62q0 -43 -35 -61t-70 0t-35 61zM161 639q0 44 35 62t70 0t35 -62q0 -43 -35 -61t-70 0t-35 61zM66 0h128v476h-128v-476z" />
<glyph unicode="&#xf0;" horiz-adv-x="587" d="M235 478q42 6 86.5 -2.5t67.5 -28.5q-12 32 -46.5 62t-53.5 35l-31 -35l-59 39l26 31q-27 16 -82 23l22 99q74 -10 132 -36l43 51l60 -43l-37 -43q101 -79 142 -170t41 -209q0 -117 -68 -188.5t-186 -71.5q-121 0 -188 73t-67 174q0 87 51.5 155t146.5 85zM292 100 q61 0 95 41t34 98q0 56 -34 97t-95 41t-95.5 -41t-34.5 -97q0 -57 34.5 -98t95.5 -41z" />
<glyph unicode="&#xf1;" horiz-adv-x="613" d="M554 0h-122v258q0 58 -31 95t-88 37q-55 0 -90.5 -40t-35.5 -98v-252h-121v494h109l8 -67q76 74 162 74q90 0 149.5 -64.5t59.5 -177.5v-259zM216 588l-76 41q43 106 129 86q12 -3 43 -18.5t49 -13t32 30.5l80 -38q-21 -55 -54.5 -76.5t-71.5 -11.5q-12 3 -28.5 12 t-28 15t-25 8.5t-26 -6t-23.5 -29.5z" />
<glyph unicode="&#xf2;" horiz-adv-x="585" d="M291 503q115 0 186.5 -74t71.5 -183q0 -110 -70 -183.5t-187 -73.5t-186.5 73.5t-69.5 183.5q0 109 70 183t185 74zM292 392q-63 0 -98.5 -43t-35.5 -103t35.5 -102.5t98.5 -42.5t98.5 42.5t35.5 102.5q0 58 -37.5 102t-96.5 44zM148 701v5h144l74 -136v-6h-108z" />
<glyph unicode="&#xf3;" horiz-adv-x="585" d="M291 503q-115 0 -185 -74t-70 -183q0 -110 69.5 -183.5t186.5 -73.5t187 73.5t70 183.5q0 109 -71.5 183t-186.5 74zM292 392q59 0 96.5 -44t37.5 -102q0 -60 -35.5 -102.5t-98.5 -42.5t-98.5 42.5t-35.5 102.5t35.5 103t98.5 43zM449 704v-5l-110 -137h-108v6l74 136 h144z" />
<glyph unicode="&#xf4;" horiz-adv-x="585" d="M291 503q115 0 186.5 -74t71.5 -183q0 -110 -70 -183.5t-187 -73.5t-186.5 73.5t-69.5 183.5q0 109 70 183t185 74zM292 392q-63 0 -98.5 -43t-35.5 -103t35.5 -102.5t98.5 -42.5t98.5 42.5t35.5 102.5q0 58 -37.5 102t-96.5 44zM110 565l148 138h67l148 -138v-6h-124 l-58 59l-57 -59h-124v6z" />
<glyph unicode="&#xf5;" horiz-adv-x="585" d="M291 503q115 0 186.5 -74t71.5 -183q0 -110 -70 -183.5t-187 -73.5t-186.5 73.5t-69.5 183.5q0 109 70 183t185 74zM292 392q-63 0 -98.5 -43t-35.5 -103t35.5 -102.5t98.5 -42.5t98.5 42.5t35.5 102.5q0 58 -37.5 102t-96.5 44zM204 581l-76 41q43 106 129 86 q12 -3 43 -18.5t49 -13t32 30.5l80 -38q-21 -55 -54.5 -76.5t-71.5 -11.5q-12 3 -28.5 12t-28 15t-25 8.5t-26 -6t-23.5 -29.5z" />
<glyph unicode="&#xf6;" horiz-adv-x="585" d="M119 648q0 44 35 62t70 0t35 -62q0 -43 -35 -61t-70 0t-35 61zM325 648q0 44 35 62t70 0t35 -62q0 -43 -35 -61t-70 0t-35 61zM291 503q-115 0 -185 -74t-70 -183q0 -110 69.5 -183.5t186.5 -73.5t187 73.5t70 183.5q0 109 -71.5 183t-186.5 74zM292 392q59 0 96.5 -44 t37.5 -102q0 -60 -35.5 -102.5t-98.5 -42.5t-98.5 42.5t-35.5 102.5t35.5 103t98.5 43z" />
<glyph unicode="&#xf7;" horiz-adv-x="551" d="M52 384v-118h447v118h-447zM206 137q0 44 35 62t70 0t35 -62q0 -43 -35 -61t-70 0t-35 61zM206 509q0 44 35 62t70 0t35 -62q0 -43 -35 -61t-70 0t-35 61z" />
<glyph unicode="&#xf8;" horiz-adv-x="585" d="M291 503q46 0 88 -14l37 63h115l-66 -112q84 -73 84 -194q0 -110 -70 -183.5t-187 -73.5q-41 0 -86 12l-39 -66h-115l67 114q-83 72 -83 197q0 109 70 183t185 74zM292 392q-63 0 -98.5 -43t-35.5 -103q0 -52 25 -89l137 232q-14 3 -28 3zM292 101q63 0 98.5 42.5 t35.5 102.5q0 46 -25 85l-135 -228q8 -2 26 -2z" />
<glyph unicode="&#xf9;" d="M58 493h122v-258q0 -58 31 -95t88 -37q55 0 90.5 40t35.5 98v252h121v-494h-109l-8 67q-75 -74 -167 -74q-91 0 -147.5 65t-56.5 177v259zM155 695v5h144l74 -136v-6h-108z" />
<glyph unicode="&#xfa;" d="M180 493h-122v-259q0 -112 56.5 -177t147.5 -65q92 0 167 74l8 -67h109v494h-121v-252q0 -58 -35.5 -98t-90.5 -40q-57 0 -88 37t-31 95v258zM459 700v-5l-110 -137h-108v6l74 136h144z" />
<glyph unicode="&#xfb;" d="M58 493h122v-258q0 -58 31 -95t88 -37q55 0 90.5 40t35.5 98v252h121v-494h-109l-8 67q-75 -74 -167 -74q-91 0 -147.5 65t-56.5 177v259zM130 566l148 138h67l148 -138v-6h-124l-58 59l-57 -59h-124v6z" />
<glyph unicode="&#xfc;" d="M180 493h-122v-259q0 -112 56.5 -177t147.5 -65q92 0 167 74l8 -67h109v494h-121v-252q0 -58 -35.5 -98t-90.5 -40q-57 0 -88 37t-31 95v258zM112 645q0 44 35 62t70 0t35 -62q0 -43 -35 -61t-70 0t-35 61zM361 645q0 44 35 62t70 0t35 -62q0 -43 -35 -61t-70 0t-35 61z " />
<glyph unicode="&#xfd;" horiz-adv-x="565" d="M556 493h-135l-90 -216l-51 -136l-47 139l-75 213h-142l197 -485l-101 -234h134zM425 701v-5l-110 -137h-108v6l74 136h144z" />
<glyph unicode="&#xfe;" horiz-adv-x="638" d="M339 106q60 0 100 37.5t40 102.5t-40 102.5t-100 37.5q-58 0 -99 -41t-41 -99t41 -99t99 -41zM188 -206h-122v906h122v-274q23 37 69.5 57.5t91.5 20.5q112 0 182 -67t70 -191t-69 -191t-181 -67q-45 0 -90.5 19t-72.5 60v-273z" />
<glyph unicode="&#xff;" horiz-adv-x="565" d="M556 493h-135l-90 -216l-51 -136l-47 139l-75 213h-142l197 -485l-101 -234h134zM103 637q0 44 35 62t70 0t35 -62q0 -43 -35 -61t-70 0t-35 61zM352 637q0 44 35 62t70 0t35 -62q0 -43 -35 -61t-70 0t-35 61z" />
<glyph unicode="&#x100;" horiz-adv-x="778" d="M631 0l-59 132h-366l-60 -132h-143l314 700h144l314 -700h-144zM519 255l-130 298l-130 -298h260zM211 779v102h358v-102h-358z" />
<glyph unicode="&#x101;" horiz-adv-x="638" d="M451 425l4 68h117v-493h-115l-6 72q-20 -40 -67 -63t-93 -24q-113 -1 -183.5 67.5t-70.5 194.5q0 123 72.5 191t184.5 67q50 0 93 -22t64 -58zM305 396q-63 0 -104.5 -40t-41.5 -109t41.5 -109.5t104.5 -40.5q55 0 92.5 31t46 74.5t0 87.5t-46 75t-92.5 31zM142 600v102 h358v-102h-358z" />
<glyph unicode="&#x102;" horiz-adv-x="778" d="M631 0l-59 132h-366l-60 -132h-143l314 700h144l314 -700h-144zM519 255l-130 298l-130 -298h260zM440 915h98q8 -93 -71.5 -131.5t-159.5 0.5t-72 131h99q0 -35 26.5 -49.5t53 0t26.5 49.5z" />
<glyph unicode="&#x103;" horiz-adv-x="638" d="M451 425l4 68h117v-493h-115l-6 72q-20 -40 -67 -63t-93 -24q-113 -1 -183.5 67.5t-70.5 194.5q0 123 72.5 191t184.5 67q50 0 93 -22t64 -58zM305 396q-63 0 -104.5 -40t-41.5 -109t41.5 -109.5t104.5 -40.5q55 0 92.5 31t46 74.5t0 87.5t-46 75t-92.5 31zM369 709h98 q8 -93 -71.5 -131.5t-159.5 0.5t-72 131h99q0 -35 26.5 -49.5t53 0t26.5 49.5z" />
<glyph unicode="&#x104;" horiz-adv-x="779" d="M519 255l-130 298l-130 -298h260zM728 -68l62 -47q-35 -53 -108 -62q-59 -8 -101 17t-54.5 62.5t8 79.5t75.5 64l-38 86h-366l-60 -132h-143l314 700h144l316 -703q-65 10 -103 1q-34 -8 -47 -31t1 -41.5t47 -16.5q27 2 53 23z" />
<glyph unicode="&#x105;" horiz-adv-x="638" d="M568 -113l62 -47q-28 -45 -85.5 -59.5t-109.5 8.5t-64 75q-8 35 10.5 74.5t79.5 62.5l-10 71q-20 -40 -67 -63t-93 -24q-113 -1 -183.5 67.5t-70.5 194.5q0 123 72.5 191t184.5 67q50 0 93 -22t64 -58l4 68h117v-541q-40 7 -80.5 -8.5t-29.5 -52.5q7 -22 39 -26.5 t67 22.5zM305 396q-63 0 -104.5 -40t-41.5 -109t41.5 -109.5t104.5 -40.5q55 0 92.5 31t46 74.5t0 87.5t-46 75t-92.5 31z" />
<glyph unicode="&#x106;" horiz-adv-x="700" d="M680 88l-90 91q-34 -34 -81.5 -52.5t-94.5 -18.5q-120 0 -180 69.5t-61 167.5t61 170.5t180 72.5q102 0 169 -66l88 85q-109 107 -257 107q-91 0 -164 -31.5t-117.5 -84.5t-67 -118t-22.5 -135q0 -71 22 -134t65.5 -114.5t116.5 -82t167 -30.5q161 0 266 104zM554 921v-5 l-110 -137h-108v6l74 136h144z" />
<glyph unicode="&#x107;" horiz-adv-x="506" d="M489 63l-82 80q-41 -41 -108 -41q-60 0 -100 38t-40 106q0 64 40 105t102 41q55 0 99 -39l77 81q-74 73 -178 73q-113 0 -187.5 -67.5t-74.5 -193.5t74.5 -193.5t187.5 -67.5q111 0 190 78zM407 699v-4l-98 -123h-97v6l67 121h128z" />
<glyph unicode="&#x108;" horiz-adv-x="700" d="M590 179l90 -91q-105 -104 -266 -104q-94 0 -167 30.5t-116.5 82t-65.5 114.5t-22 134q0 70 22.5 135t67 118t117.5 84.5t164 31.5q148 0 257 -107l-88 -85q-67 66 -169 66q-118 0 -180 -72.5t-61 -170.5t61 -167.5t180 -69.5q47 0 94.5 18.5t81.5 52.5zM215 784l148 138 h67l148 -138v-6h-124l-58 59l-57 -59h-124v6z" />
<glyph unicode="&#x109;" horiz-adv-x="506" d="M407 143l82 -80q-79 -78 -190 -78q-113 0 -187.5 67.5t-74.5 193.5t74.5 193.5t187.5 67.5q104 0 178 -73l-77 -81q-44 39 -99 39q-62 0 -102 -41t-40 -105q0 -68 40 -106t100 -38q67 0 108 41zM106 581l144 134h65l144 -134v-6h-120l-57 57l-55 -57h-121v6z" />
<glyph unicode="&#x10a;" horiz-adv-x="700" d="M680 88l-90 91q-34 -34 -81.5 -52.5t-94.5 -18.5q-120 0 -180 69.5t-61 167.5t61 170.5t180 72.5q102 0 169 -66l88 85q-109 107 -257 107q-91 0 -164 -31.5t-117.5 -84.5t-67 -118t-22.5 -135q0 -71 22 -134t65.5 -114.5t116.5 -82t167 -30.5q161 0 266 104zM341 851 q0 43 34.5 60.5t68.5 0t34 -60.5t-34 -60.5t-68.5 0t-34.5 60.5z" />
<glyph unicode="&#x10b;" horiz-adv-x="506" d="M489 63l-82 80q-41 -41 -108 -41q-60 0 -100 38t-40 106q0 64 40 105t102 41q55 0 99 -39l77 81q-74 73 -178 73q-113 0 -187.5 -67.5t-74.5 -193.5t74.5 -193.5t187.5 -67.5q111 0 190 78zM226 646q0 32 21.5 49.5t47 17.5t47 -17.5t21.5 -49.5t-21.5 -50t-47 -18 t-47 18t-21.5 50z" />
<glyph unicode="&#x10c;" horiz-adv-x="700" d="M590 179l90 -91q-105 -104 -266 -104q-94 0 -167 30.5t-116.5 82t-65.5 114.5t-22 134q0 70 22.5 135t67 118t117.5 84.5t164 31.5q148 0 257 -107l-88 -85q-67 66 -169 66q-118 0 -180 -72.5t-61 -170.5t61 -167.5t180 -69.5q47 0 94.5 18.5t81.5 52.5zM377 775 l-147 130v6h123l59 -58l64 58h119v-6l-151 -130h-67z" />
<glyph unicode="&#x10d;" horiz-adv-x="506" d="M407 143l82 -80q-79 -78 -190 -78q-113 0 -187.5 67.5t-74.5 193.5t74.5 193.5t187.5 67.5q104 0 178 -73l-77 -81q-44 39 -99 39q-62 0 -102 -41t-40 -105q0 -68 40 -106t100 -38q67 0 108 41zM254 569l-136 125v6h114l55 -56l59 56h111v-6l-141 -125h-62z" />
<glyph unicode="&#x10e;" horiz-adv-x="751" d="M358 700q87 0 155 -29t109.5 -78.5t63 -109.5t22.5 -127q1 -68 -19.5 -130.5t-62 -113.5t-111 -81.5t-157.5 -30.5h-275v700h275zM214 575v-448h144q111 0 166 67.5t53 162.5q-2 91 -57.5 154.5t-161.5 63.5h-144zM293 769l-142 132v6h119l57 -59l61 59h115v-6l-145 -132 h-65z" />
<glyph unicode="&#x10f;" horiz-adv-x="638" d="M299 391q-60 0 -100 -39.5t-40 -104.5q0 -64 40.5 -104.5t99.5 -40.5q60 0 101.5 40t41.5 105q0 63 -42 103.5t-101 40.5zM450 699h122v-699h-114l-8 68q-51 -79 -159 -79q-111 0 -182.5 69.5t-71.5 188.5q0 124 69.5 191t181.5 67q43 0 92.5 -21.5t69.5 -57.5v273z M653 698l-46 -202h91l74 202h-119z" />
<glyph unicode="&#x110;" horiz-adv-x="757" d="M26 299v108h63v293h275q87 0 155 -29t109.5 -78.5t63 -109.5t22.5 -127q1 -68 -19.5 -130.5t-62 -113.5t-111 -81.5t-157.5 -30.5h-275v299h-63zM220 299v-172h144q111 0 166 67.5t53 162.5q-2 91 -57.5 154.5t-161.5 63.5h-144v-168h110v-108h-110z" />
<glyph unicode="&#x111;" horiz-adv-x="638" d="M450 699h122v-59h58v-85h-58v-555h-114l-8 68q-51 -79 -159 -79q-111 0 -182.5 69.5t-71.5 188.5q0 124 69.5 191t181.5 67q43 0 92.5 -21.5t69.5 -57.5v129h-101v85h101v59zM299 391q-60 0 -100 -39.5t-40 -104.5q0 -64 40.5 -104.5t99.5 -40.5q60 0 101.5 40t41.5 105 q0 63 -42 103.5t-101 40.5z" />
<glyph unicode="&#x112;" horiz-adv-x="665" d="M607 130v-130h-524v700h524v-128h-393v-161h379v-123h-379v-158h393zM169 783v102h358v-102h-358z" />
<glyph unicode="&#x113;" horiz-adv-x="581" d="M548 203h-385q6 -47 45 -76t102 -29q36 0 74 12.5t58 33.5l78 -77q-37 -39 -95 -59.5t-117 -20.5q-126 0 -198.5 71.5t-72.5 191.5q0 114 71.5 186t190.5 72q127 0 195 -78.5t54 -226.5zM165 304h266q-6 47 -40 71.5t-88 24.5q-51 0 -88 -24.5t-50 -71.5zM140 605v97h318 v-97h-318z" />
<glyph unicode="&#x114;" horiz-adv-x="665" d="M607 130v-130h-524v700h524v-128h-393v-161h379v-123h-379v-158h393zM405 907h100q8 -88 -73 -124t-162.5 0.5t-73.5 123.5h101q0 -33 27 -47t54 0t27 47z" />
<glyph unicode="&#x115;" horiz-adv-x="581" d="M548 203h-385q6 -47 45 -76t102 -29q36 0 74 12.5t58 33.5l78 -77q-37 -39 -95 -59.5t-117 -20.5q-126 0 -198.5 71.5t-72.5 191.5q0 114 71.5 186t190.5 72q127 0 195 -78.5t54 -226.5zM165 304h266q-6 47 -40 71.5t-88 24.5q-51 0 -88 -24.5t-50 -71.5zM353 708h98 q8 -88 -72 -124t-160 0.5t-72 123.5h99q0 -25 16.5 -39t37 -14t37 14t16.5 39z" />
<glyph unicode="&#x116;" horiz-adv-x="665" d="M607 0v130h-393v158h379v123h-379v161h393v128h-524v-700h524zM276 842q0 32 23 50t50.5 18t50.5 -18t23 -50t-23 -50t-50.5 -18t-50.5 18t-23 50z" />
<glyph unicode="&#x117;" horiz-adv-x="581" d="M548 203q14 148 -54 226.5t-195 78.5q-119 0 -190.5 -72t-71.5 -186q0 -120 72.5 -191.5t198.5 -71.5q59 0 117 20.5t95 59.5l-78 77q-20 -21 -58 -33.5t-74 -12.5q-63 0 -102 29t-45 76h385zM165 304q13 47 50 71.5t88 24.5q54 0 88 -24.5t40 -71.5h-266zM225 649 q0 31 22.5 49t50 18t50 -18t22.5 -49t-22.5 -49t-50 -18t-50 18t-22.5 49z" />
<glyph unicode="&#x118;" horiz-adv-x="665" d="M607 130v-130q-63 6 -101 -13t-28 -50q7 -22 39 -26.5t67 22.5l62 -47q-28 -45 -89 -61.5t-114.5 5t-61.5 72.5q-4 26 6 54t44 44h-348v700h524v-128h-393v-161h379v-123h-379v-158h393z" />
<glyph unicode="&#x119;" horiz-adv-x="582" d="M548 203h-385q6 -47 45 -76t102 -29q36 0 74 12.5t58 33.5l78 -77q-40 -41 -102 -62q-51 -17 -39 -56q7 -22 39 -26.5t67 22.5l62 -47q-26 -43 -83.5 -58t-109 3t-64.5 62q-6 21 -3 45.5t15 39.5q-124 6 -194.5 75.5t-70.5 184.5q0 114 71.5 186t190.5 72 q127 0 195 -78.5t54 -226.5zM165 304h266q-6 47 -40 71.5t-88 24.5q-51 0 -88 -24.5t-50 -71.5z" />
<glyph unicode="&#x11a;" horiz-adv-x="665" d="M607 130v-130h-524v700h524v-128h-393v-161h379v-123h-379v-158h393zM323 774l-148 127v6h124l58 -57l64 57h120v-6l-152 -127h-66z" />
<glyph unicode="&#x11b;" horiz-adv-x="581" d="M548 203h-385q6 -47 45 -76t102 -29q36 0 74 12.5t58 33.5l78 -77q-37 -39 -95 -59.5t-117 -20.5q-126 0 -198.5 71.5t-72.5 191.5q0 114 71.5 186t190.5 72q127 0 195 -78.5t54 -226.5zM165 304h266q-6 47 -40 71.5t-88 24.5q-51 0 -88 -24.5t-50 -71.5zM264 565 l-152 130v5h127l61 -57l65 57h123v-5l-155 -130h-69z" />
<glyph unicode="&#x11c;" horiz-adv-x="743" d="M672 613l-82 -84q-34 33 -82.5 51.5t-95.5 18.5q-110 0 -175.5 -73.5t-65.5 -184.5q0 -97 60 -165.5t181 -68.5q88 0 158 56v124h-179v118h300v-295q-110 -126 -279 -126q-95 0 -168 29.5t-116 80.5t-64.5 113.5t-21.5 133.5q0 102 40 186t125.5 138.5t204.5 54.5 q151 0 260 -107zM217 784l148 138h67l148 -138v-6h-124l-58 59l-57 -59h-124v6z" />
<glyph unicode="&#x11d;" horiz-adv-x="617" d="M434 478l55 68l90 -68l-62 -72q57 -68 57 -147q0 -129 -122 -185q122 -44 122 -160q0 -67 -40.5 -115.5t-100 -70.5t-128.5 -22q-128 0 -199 60.5t-67 166.5h121q-3 -49 40 -78.5t105 -30.5q56 0 99 23.5t43 66.5q0 45 -36 71t-104 26q-123 0 -196.5 66.5t-73.5 181.5 q0 118 79.5 184t190.5 66q81 0 127 -31zM307 396q-64 0 -106 -35.5t-42 -101.5q0 -62 43 -99t105 -37t103.5 37t41.5 99t-41.5 99.5t-103.5 37.5zM119 585l150 130h68l149 -130v-6h-125l-59 56l-57 -56h-126v6z" />
<glyph unicode="&#x11e;" horiz-adv-x="743" d="M672 613l-82 -84q-34 33 -82.5 51.5t-95.5 18.5q-110 0 -175.5 -73.5t-65.5 -184.5q0 -97 60 -165.5t181 -68.5q88 0 158 56v124h-179v118h300v-295q-110 -126 -279 -126q-95 0 -168 29.5t-116 80.5t-64.5 113.5t-21.5 133.5q0 102 40 186t125.5 138.5t204.5 54.5 q151 0 260 -107zM458 920h101q8 -90 -74 -127t-163.5 1t-73.5 126h101q0 -25 17 -39.5t37.5 -14.5t37.5 14.5t17 39.5z" />
<glyph unicode="&#x11f;" horiz-adv-x="617" d="M434 478l55 68l90 -68l-62 -72q57 -68 57 -147q0 -129 -122 -185q122 -44 122 -160q0 -67 -40.5 -115.5t-100 -70.5t-128.5 -22q-128 0 -199 60.5t-67 166.5h121q-3 -49 40 -78.5t105 -30.5q56 0 99 23.5t43 66.5q0 45 -36 71t-104 26q-123 0 -196.5 66.5t-73.5 181.5 q0 118 79.5 184t190.5 66q81 0 127 -31zM307 396q-64 0 -106 -35.5t-42 -101.5q0 -62 43 -99t105 -37t103.5 37t41.5 99t-41.5 99.5t-103.5 37.5zM360 710h98q8 -92 -71.5 -129.5t-159 1t-71.5 128.5h99q0 -34 26.5 -48t52.5 0t26 48z" />
<glyph unicode="&#x120;" horiz-adv-x="743" d="M590 529l82 84q-109 107 -260 107q-119 0 -204.5 -54.5t-125.5 -138.5t-40 -186q0 -71 21.5 -133.5t64.5 -113.5t116 -80.5t168 -29.5q169 0 279 126v295h-300v-118h179v-124q-70 -56 -158 -56q-121 0 -181 68.5t-60 165.5q0 111 65.5 184.5t175.5 73.5q47 0 95.5 -18.5 t82.5 -51.5zM338 853q0 32 22.5 49.5t49.5 17.5t49.5 -17.5t22.5 -49.5q0 -31 -22.5 -49t-49.5 -18t-49.5 18t-22.5 49z" />
<glyph unicode="&#x121;" horiz-adv-x="617" d="M434 478q-46 31 -127 31q-111 0 -190.5 -66t-79.5 -184q0 -115 73.5 -181.5t196.5 -66.5q68 0 104 -26t36 -71q0 -43 -43 -66.5t-99 -23.5q-62 1 -105 30.5t-40 78.5h-121q-4 -106 67 -166.5t199 -60.5q69 0 128.5 22t100 70.5t40.5 115.5q0 116 -122 160q122 56 122 185 q0 79 -57 147l62 72l-90 68zM307 396q62 0 103.5 -37.5t41.5 -99.5t-41.5 -99t-103.5 -37t-105 37t-43 99q0 66 42 101.5t106 35.5zM237 647q0 32 23.5 50t51 18t51 -18t23.5 -50q0 -43 -37 -60.5t-74.5 0t-37.5 60.5z" />
<glyph unicode="&#x122;" horiz-adv-x="743" d="M489 -137q0 -36 -51 -129h-69l31 77q-24 2 -38.5 17t-14.5 38q0 43 35.5 60t71 -1.5t35.5 -61.5zM672 613l-82 -84q-34 33 -82.5 51.5t-95.5 18.5q-110 0 -175.5 -73.5t-65.5 -184.5q0 -97 60 -165.5t181 -68.5q88 0 158 56v124h-179v118h300v-295q-110 -126 -279 -126 q-95 0 -168 29.5t-116 80.5t-64.5 113.5t-21.5 133.5q0 102 40 186t125.5 138.5t204.5 54.5q151 0 260 -107z" />
<glyph unicode="&#x123;" horiz-adv-x="617" d="M241 647q0 36 51 129h69l-31 -77q24 -2 38.5 -17t14.5 -38q0 -43 -35.5 -60t-71 1.5t-35.5 61.5zM434 478q-46 31 -127 31q-111 0 -190.5 -66t-79.5 -184q0 -115 73.5 -181.5t196.5 -66.5q68 0 104 -26t36 -71q0 -43 -43 -66.5t-99 -23.5q-62 1 -105 30.5t-40 78.5h-121 q-4 -106 67 -166.5t199 -60.5q69 0 128.5 22t100 70.5t40.5 115.5q0 116 -122 160q122 56 122 185q0 79 -57 147l62 72l-90 68zM307 396q62 0 103.5 -37.5t41.5 -99.5t-41.5 -99t-103.5 -37t-105 37t-43 99q0 66 42 101.5t106 35.5z" />
<glyph unicode="&#x124;" horiz-adv-x="773" d="M690 -1h-131v283h-344v-283h-132v700h132v-295h344v295h131v-700zM200 777l148 138h67l148 -138v-6h-124l-58 59l-57 -59h-124v6z" />
<glyph unicode="&#x125;" horiz-adv-x="603" d="M66 700h122v-274q57 74 154 74q102 0 152 -63.5t50 -176.5v-260h-122v259q0 65 -30.5 96.5t-81.5 31.5q-53 0 -87.5 -39t-34.5 -96v-252h-122v700zM136 773l143 133h65l143 -133v-6h-120l-56 57l-55 -57h-120v6z" />
<glyph unicode="&#x126;" horiz-adv-x="785" d="M696 -1h-131v283h-344v-283h-132v520h-65v83h65v97h132v-97h344v97h131v-97h67v-83h-67v-520zM221 404h344v115h-344v-115z" />
<glyph unicode="&#x127;" horiz-adv-x="603" d="M6 555v83h60v62h122v-62h108v-83h-108v-129q57 74 154 74q102 0 152 -63.5t50 -176.5v-260h-122v259q0 65 -30.5 96.5t-81.5 31.5q-53 0 -87.5 -39t-34.5 -96v-252h-122v555h-60z" />
<glyph unicode="&#x128;" horiz-adv-x="297" d="M214 0h-131v700h131v-700zM64 777l-71 41q40 104 120 85q11 -3 39.5 -18.5t45.5 -13t30 30.5l74 -38q-19 -54 -50.5 -75.5t-66.5 -11.5q-11 3 -26 12t-26 15t-23.5 8.5t-24 -6t-21.5 -29.5z" />
<glyph unicode="&#x129;" horiz-adv-x="260" d="M194 0h-128v476h128v-476zM58 593l-61 39q34 102 104 83q10 -3 27.5 -13t28.5 -15t23.5 0.5t21.5 26.5l65 -36q-17 -53 -44.5 -74t-57.5 -11q-11 4 -28.5 15t-28.5 16.5t-25 -0.5t-25 -31z" />
<glyph unicode="&#x12a;" horiz-adv-x="297" d="M214 0h-131v700h131v-700zM1 782v98h294v-98h-294z" />
<glyph unicode="&#x12b;" horiz-adv-x="260" d="M194 0h-128v476h128v-476zM-6 594v99h273v-99h-273z" />
<glyph unicode="&#x12c;" horiz-adv-x="297" d="M214 0h-131v700h131v-700zM202 911h95q8 -90 -69.5 -127t-154.5 0.5t-70 126.5h96q0 -34 25.5 -48t51.5 0t26 48z" />
<glyph unicode="&#x12d;" horiz-adv-x="260" d="M194 0h-128v476h128v-476zM178 699h86q7 -87 -63 -123.5t-140 0t-63 123.5h87q0 -33 23.5 -47t46.5 0t23 47z" />
<glyph unicode="&#x12e;" horiz-adv-x="299" d="M124 -64q7 -22 39 -26.5t67 22.5l62 -47q-21 -34 -62 -50t-81.5 -12t-74 26.5t-41.5 59.5q-7 31 3.5 64t47.5 51v676h131v-700q-47 2 -74 -16t-17 -48z" />
<glyph unicode="&#x12f;" horiz-adv-x="257" d="M191 495h-122v-469q-38 -17 -51 -51t-8 -66q9 -50 59 -74t108 -11t86 58l-62 47q-35 -26 -64 -21t-36 28q-9 31 20 49t70 15v495zM58 632q0 34 22.5 53t49.5 19t49.5 -19t22.5 -53t-22.5 -53t-49.5 -19t-49.5 19t-22.5 53z" />
<glyph unicode="&#x130;" horiz-adv-x="297" d="M83 0h131v700h-131v-700zM77 847q0 34 22.5 53t49.5 19t49.5 -19t22.5 -53t-22.5 -53t-49.5 -19t-49.5 19t-22.5 53z" />
<glyph unicode="&#x131;" horiz-adv-x="260" d="M194 0h-128v476h128v-476z" />
<glyph unicode="&#x132;" horiz-adv-x="1007" d="M214 0h-131v700h131v-700zM933 700v-401q0 -139 -83 -226t-225 -87q-138 0 -222.5 80t-84.5 225h130q0 -181 177 -181q86 0 131 52.5t45 136.5v278h-211v123h343z" />
<glyph unicode="&#x133;" horiz-adv-x="507" d="M188 495h-122v-495h122v495zM55 632q0 34 22.5 53t49.5 19t49.5 -19t22.5 -53t-22.5 -53t-49.5 -19t-49.5 19t-22.5 53zM441 495h-121v-547q0 -43 -10 -62t-39 -20q-27 -1 -59 14l-44 -95q50 -33 109 -33q83 0 123.5 48t40.5 148v547zM309 633q0 34 22.5 53t49.5 19 t49.5 -19t22.5 -53t-22.5 -53t-49.5 -19t-49.5 19t-22.5 53z" />
<glyph unicode="&#x134;" horiz-adv-x="710" d="M636 700v-401q0 -139 -83 -226t-225 -87q-138 0 -222.5 80t-84.5 225h130q0 -181 177 -181q86 0 131 52.5t45 136.5v278h-211v123h343zM233 784l148 138h67l148 -138v-6h-124l-58 59l-57 -59h-124v6z" />
<glyph unicode="&#x135;" horiz-adv-x="253" d="M66 495h121v-547q0 -100 -40.5 -148t-123.5 -48q-59 0 -109 33l44 95q32 -15 59 -14q29 1 39 20t10 62v547zM-34 570l130 144h59l130 -144v-6h-109l-51 61l-50 -61h-109v6z" />
<glyph unicode="&#x136;" horiz-adv-x="666" d="M425 -128q0 -36 -51 -129h-69l31 77q-24 2 -38.5 17t-14.5 38q0 43 35.5 60t71 -1.5t35.5 -61.5zM645 700v-4l-311 -335l337 -353v-8h-163l-293 310v-310h-132v700h132v-296l266 296h164z" />
<glyph unicode="&#x137;" horiz-adv-x="529" d="M347 -123q0 -34 -48 -123h-66l29 73q-23 2 -36.5 16.5t-13.5 36.5q0 25 14 41.5t34 20t39.5 -1t33.5 -21.5t14 -42zM66 699h122v-404l166 198h146v-7l-201 -225l229 -252v-9h-147l-193 223v-223h-122v699z" />
<glyph unicode="&#x138;" horiz-adv-x="529" d="M66 493h122v-198l166 198h146v-7l-201 -225l229 -252v-9h-147l-193 223v-223h-122v493z" />
<glyph unicode="&#x139;" horiz-adv-x="592" d="M215 700h-132v-700h492v122h-360v578zM318 915v-5l-110 -137h-108v6l74 136h144z" />
<glyph unicode="&#x13a;" horiz-adv-x="259" d="M190 699h-121v-699h121v699zM281 909v-5l-107 -133h-105v6l72 132h140z" />
<glyph unicode="&#x13b;" horiz-adv-x="592" d="M412 -132q0 -36 -51 -129h-69l31 77q-24 2 -38.5 17t-14.5 38q0 43 35.5 60t71 -1.5t35.5 -61.5zM83 700h132v-578h360v-122h-492v700z" />
<glyph unicode="&#x13c;" horiz-adv-x="259" d="M201 -126q0 -36 -51 -129h-69l31 77q-24 2 -38.5 17t-14.5 38q0 43 35.5 60t71 -1.5t35.5 -61.5zM69 699h121v-699h-121v699z" />
<glyph unicode="&#x13d;" horiz-adv-x="594" d="M83 700h132v-578h360v-122h-492v700zM360 488l47 205h124l-77 -205h-94z" />
<glyph unicode="&#x13e;" horiz-adv-x="256" d="M69 699h121v-699h-121v699zM225 496l45 204h116l-72 -204h-89z" />
<glyph unicode="&#x13f;" horiz-adv-x="592" d="M83 700h132v-578h360v-122h-492v700zM325 316q0 47 38 66.5t76 0t38 -66.5t-38 -66.5t-76 0t-38 66.5z" />
<glyph unicode="&#x140;" horiz-adv-x="396" d="M69 699h121v-699h-121v699zM252 310q0 47 38 66.5t76 0t38 -66.5t-38 -66.5t-76 0t-38 66.5z" />
<glyph unicode="&#x141;" horiz-adv-x="602" d="M225 413l106 52v-101l-106 -51v-191h360v-122h-492v249l-78 -38v99l78 38v352h132v-287z" />
<glyph unicode="&#x142;" horiz-adv-x="293" d="M276 441v-90l-71 -35v-316h-121v257l-64 -31v91l64 31v351h121v-293z" />
<glyph unicode="&#x143;" horiz-adv-x="777" d="M562 229l-372 471h-107v-700h132v466l372 -466h107v700h-132v-471zM529 911v-5l-110 -137h-108v6l74 136h144z" />
<glyph unicode="&#x144;" horiz-adv-x="613" d="M432 0h122v259q0 113 -59.5 177.5t-149.5 64.5q-86 0 -162 -74l-8 67h-109v-494h121v252q0 58 35.5 98t90.5 40q57 0 88 -37t31 -95v-258zM444 699v-5l-103 -128h-102v5l70 128h135z" />
<glyph unicode="&#x145;" horiz-adv-x="777" d="M480 -129q0 -36 -51 -129h-69l31 77q-24 2 -38.5 17t-14.5 38q0 43 35.5 60t71 -1.5t35.5 -61.5zM190 700l372 -471v471h132v-700h-107l-372 466v-466h-132v700h107z" />
<glyph unicode="&#x146;" horiz-adv-x="613" d="M378 -122q0 -35 -48 -122h-65l29 73q-23 2 -36.5 15.5t-13.5 35.5q0 41 33.5 57t67 -1.5t33.5 -57.5zM554 0h-122v258q0 58 -31 95t-88 37q-55 0 -90.5 -40t-35.5 -98v-252h-121v494h109l8 -67q76 74 162 74q90 0 149.5 -64.5t59.5 -177.5v-259z" />
<glyph unicode="&#x147;" horiz-adv-x="777" d="M190 700l372 -471v471h132v-700h-107l-372 466v-466h-132v700h107zM355 763l-148 138v6h124l59 -61l64 61h120v-6l-152 -138h-67z" />
<glyph unicode="&#x148;" horiz-adv-x="613" d="M554 0h-122v258q0 58 -31 95t-88 37q-55 0 -90.5 -40t-35.5 -98v-252h-121v494h109l8 -67q76 74 162 74q90 0 149.5 -64.5t59.5 -177.5v-259zM277 568l-144 136v5h121l58 -59l62 59h118v-5l-149 -136h-66z" />
<glyph unicode="&#x149;" horiz-adv-x="613" d="M554 0h-122v258q0 58 -31 95t-88 37q-55 0 -90.5 -40t-35.5 -98v-252h-121v494h109l8 -67q76 74 162 74q90 0 149.5 -64.5t59.5 -177.5v-259z" />
<glyph unicode="&#x14a;" horiz-adv-x="777" d="M190 700l372 -471v471h132v-721q0 -100 -40.5 -148t-123.5 -48q-59 0 -109 33l44 95q32 -15 59 -14q29 1 38.5 20t9.5 62v40l-357 447v-466h-132v700h107z" />
<glyph unicode="&#x14b;" horiz-adv-x="613" d="M432 -27v285q0 58 -31 95t-88 37q-55 0 -90.5 -40t-35.5 -98v-252h-121v494h109l8 -67q76 74 162 74q90 0 149.5 -64.5t59.5 -177.5v-286q0 -100 -40.5 -148t-123.5 -48q-59 0 -109 33l44 95q32 -15 59 -14q29 1 38.5 20t9.5 62z" />
<glyph unicode="&#x14c;" horiz-adv-x="802" d="M405 714q86 -1 156 -32.5t113 -84t65.5 -117t21.5 -134.5t-23 -133.5t-64.5 -115t-112.5 -82.5t-159 -31t-159.5 30t-113.5 81.5t-65 115t-22 134.5q0 163 104 266t259 103zM172 343q3 -98 59.5 -168t170.5 -70t170.5 70.5t58.5 168.5t-56 173t-170 77q-109 0 -172.5 -72 t-60.5 -179zM224 792v102h358v-102h-358z" />
<glyph unicode="&#x14d;" horiz-adv-x="585" d="M291 503q115 0 186.5 -74t71.5 -183q0 -110 -70 -183.5t-187 -73.5t-186.5 73.5t-69.5 183.5q0 109 70 183t185 74zM292 392q-63 0 -98.5 -43t-35.5 -103t35.5 -102.5t98.5 -42.5t98.5 42.5t35.5 102.5q0 58 -37.5 102t-96.5 44zM127 590v102h330v-102h-330z" />
<glyph unicode="&#x14e;" horiz-adv-x="802" d="M405 714q86 -1 156 -32.5t113 -84t65.5 -117t21.5 -134.5t-23 -133.5t-64.5 -115t-112.5 -82.5t-159 -31t-159.5 30t-113.5 81.5t-65 115t-22 134.5q0 163 104 266t259 103zM172 343q3 -98 59.5 -168t170.5 -70t170.5 70.5t58.5 168.5t-56 173t-170 77q-109 0 -172.5 -72 t-60.5 -179zM456 926h101q8 -93 -74 -131.5t-163.5 0.5t-73.5 131h101q0 -35 27.5 -49.5t54.5 0t27 49.5z" />
<glyph unicode="&#x14f;" horiz-adv-x="585" d="M291 503q115 0 186.5 -74t71.5 -183q0 -110 -70 -183.5t-187 -73.5t-186.5 73.5t-69.5 183.5q0 109 70 183t185 74zM292 392q-63 0 -98.5 -43t-35.5 -103t35.5 -102.5t98.5 -42.5t98.5 42.5t35.5 102.5q0 58 -37.5 102t-96.5 44zM344 704h98q8 -93 -71.5 -131.5 t-159.5 0.5t-72 131h99q0 -35 26.5 -49.5t53 0t26.5 49.5z" />
<glyph unicode="&#x150;" horiz-adv-x="802" d="M405 714q-155 0 -259 -103t-104 -266q0 -71 22 -134.5t65 -115t113.5 -81.5t159.5 -30t159 31t112.5 82.5t64.5 115t23 133.5t-21.5 134.5t-65.5 117t-113 84t-156 32.5zM172 343q-3 107 60.5 179t172.5 72q112 -2 170 -77t56 -173t-58.5 -168.5t-170.5 -70.5t-170.5 70 t-59.5 168zM630 913v-3l-116 -132h-98l87 135h127zM452 914v-3l-113 -132h-100l86 135h127z" />
<glyph unicode="&#x151;" horiz-adv-x="585" d="M291 503q-115 0 -185 -74t-70 -183q0 -110 69.5 -183.5t186.5 -73.5t187 73.5t70 183.5q0 109 -71.5 183t-186.5 74zM292 392q59 0 96.5 -44t37.5 -102q0 -60 -35.5 -102.5t-98.5 -42.5t-98.5 42.5t-35.5 102.5t35.5 103t98.5 43zM519 701v-3l-114 -121h-96l86 124h124z M345 702v-4l-111 -120h-97l84 124h124z" />
<glyph unicode="&#x152;" horiz-adv-x="1030" d="M972 132v-131h-457q-56 -16 -115 -16q-174 0 -265.5 103t-91.5 266q0 161 92 260.5t265 99.5q59 0 115 -16v2h457v-131h-335v-156h321v-125h-321v-156h335zM401 603q-110 0 -168 -70.5t-58 -181.5q0 -104 60 -179t169 -75q67 0 111 20v464q-47 22 -114 22z" />
<glyph unicode="&#x153;" horiz-adv-x="954" d="M921 203h-382q6 -47 43.5 -76t100.5 -29q36 0 74 12.5t58 33.5l78 -77q-37 -39 -95 -59.5t-117 -20.5q-143 0 -203 101q-68 -99 -186 -99q-117 0 -186.5 73.5t-69.5 183.5q0 109 70 183.5t185 74.5q61 0 113 -26t80 -73q23 45 73.5 73t114.5 28q128 0 195.5 -77.5 t53.5 -225.5zM292 392q-63 0 -98.5 -43t-35.5 -103t35.5 -102.5t98.5 -42.5t98.5 42.5t35.5 102.5q0 58 -37.5 102t-96.5 44zM538 304h266q-6 47 -40 71.5t-88 24.5q-51 0 -88 -24.5t-50 -71.5z" />
<glyph unicode="&#x154;" horiz-adv-x="728" d="M703 0v9l-212 239q93 19 135 79.5t42 140.5q0 96 -67 163.5t-185 68.5q-56 0 -167 0.5t-166 0.5v-701h132v234h134l203 -234h151zM215 577h201q58 0 89 -33t31 -79t-30.5 -79t-89.5 -33h-201v224zM484 918v-5l-110 -137h-108v6l74 136h144z" />
<glyph unicode="&#x155;" horiz-adv-x="453" d="M179 493h-113v-493h122v260q0 64 35 94.5t88 30.5q50 0 88 -32l55 106q-47 47 -127 47q-45 0 -79 -14t-60 -56zM393 699v-5l-103 -128h-101v5l70 128h134z" />
<glyph unicode="&#x156;" horiz-adv-x="728" d="M460 -129q0 -36 -51 -129h-69l31 77q-24 2 -38.5 17t-14.5 38q0 43 35.5 60t71 -1.5t35.5 -61.5zM703 9v-9h-151l-203 234h-134v-234h-132v701q55 0 166 -0.5t167 -0.5q118 -1 185 -68.5t67 -163.5q0 -80 -42 -140.5t-135 -79.5zM416 577h-201v-224h201q59 0 89.5 33 t30.5 79t-31 79t-89 33z" />
<glyph unicode="&#x157;" horiz-adv-x="453" d="M194 -127q0 -34 -48 -121h-64l29 73q-23 2 -36.5 15.5t-13.5 35.5q0 25 13.5 41t33 19.5t39.5 -1t33.5 -21.5t13.5 -41zM66 493h113l9 -57q26 42 60 56t79 14q80 0 127 -47l-55 -106q-38 32 -88 32q-53 0 -88 -30.5t-35 -94.5v-260h-122v493z" />
<glyph unicode="&#x158;" horiz-adv-x="728" d="M703 9v-9h-151l-203 234h-134v-234h-132v701q55 0 166 -0.5t167 -0.5q118 -1 185 -68.5t67 -163.5q0 -80 -42 -140.5t-135 -79.5zM416 577h-201v-224h201q59 0 89.5 33t30.5 79t-31 79t-89 33zM304 768l-150 136v6h126l60 -60l65 60h121v-6l-154 -136h-68z" />
<glyph unicode="&#x159;" horiz-adv-x="453" d="M66 493h113l9 -57q26 42 60 56t79 14q80 0 127 -47l-55 -106q-38 32 -88 32q-53 0 -88 -30.5t-35 -94.5v-260h-122v493zM223 564l-140 130v6h117l56 -58l61 58h113v-6l-144 -130h-63z" />
<glyph unicode="&#x15a;" horiz-adv-x="664" d="M500 531l105 54q-68 139 -275 139q-69 -1 -128 -20.5t-101 -67.5t-42 -116q0 -56 21.5 -96t63.5 -63t85.5 -34.5t104.5 -18.5q162 -17 162 -103q0 -53 -46 -79t-115 -26q-68 0 -121.5 28t-75.5 83l-110 -57q70 -172 305 -172q81 0 145.5 22.5t106.5 74t42 126.5 q0 48 -16 85.5t-40.5 60t-63.5 39t-76 24.5t-86 14q-48 6 -79 14t-54 26.5t-23 47.5q0 41 37 67t108 26q54 0 100.5 -23t65.5 -55zM482 923v-5l-110 -137h-108v6l74 136h144z" />
<glyph unicode="&#x15b;" horiz-adv-x="497" d="M376 362l68 80q-74 65 -192 65q-36 0 -71 -8.5t-66.5 -25.5t-51 -48t-19.5 -72q0 -40 18 -70t49.5 -46.5t64.5 -25t72 -11.5q98 -6 98 -57q0 -26 -26 -40.5t-63 -13.5q-106 2 -170 69l-60 -87q50 -52 105 -70t123 -18q101 0 156.5 46.5t55.5 115.5q0 38 -13.5 66 t-33.5 44.5t-50 27t-55.5 14.5t-58.5 6q-92 6 -92 54q0 49 90 49q75 0 122 -44zM382 701v-5l-101 -125h-99v5l68 125h132z" />
<glyph unicode="&#x15c;" horiz-adv-x="664" d="M605 585l-105 -54q-19 32 -65.5 55t-100.5 23q-71 0 -108 -26t-37 -67q0 -29 23 -47.5t54 -26.5t79 -14q49 -6 86 -14t76 -24.5t63.5 -39t40.5 -60t16 -85.5q0 -75 -42 -126.5t-106.5 -74t-145.5 -22.5q-235 0 -305 172l110 57q22 -55 75.5 -83t121.5 -28q69 0 115 26 t46 79q0 86 -162 103q-61 7 -104.5 18.5t-85.5 34.5t-63.5 63t-21.5 96q0 68 42 116t101 67.5t128 20.5q207 0 275 -139zM159 788l148 138h67l148 -138v-6h-124l-58 59l-57 -59h-124v6z" />
<glyph unicode="&#x15d;" horiz-adv-x="497" d="M444 442l-68 -80q-47 44 -122 44q-90 0 -90 -49q0 -48 92 -54q33 -2 58.5 -6t55.5 -14.5t50 -27t33.5 -44.5t13.5 -66q0 -69 -55.5 -115.5t-156.5 -46.5q-68 0 -123 18t-105 70l60 87q64 -67 170 -69q37 -1 63 13.5t26 40.5q0 51 -98 57q-39 3 -72 11.5t-64.5 25 t-49.5 46.5t-18 70q0 41 19.5 72t51 48t66.5 25.5t71 8.5q118 0 192 -65zM78 571l144 134h65l144 -134v-6h-120l-57 57l-55 -57h-121v6z" />
<glyph unicode="&#x15e;" horiz-adv-x="666" d="M201 -192l55 44q22 -29 67.5 -31t54.5 27q8 27 -25 40t-62 -6l-30 22l29 80q-198 13 -261 170l110 57q22 -55 75.5 -83t121.5 -28q69 0 115 26t46 79q0 86 -162 103q-61 7 -104.5 18.5t-85.5 34.5t-63.5 63t-21.5 96q0 68 42 116t101 67.5t128 20.5q207 0 275 -139 l-105 -54q-19 32 -65 55t-101 23q-71 0 -108 -26t-37 -67q0 -29 23 -47.5t54 -26.5t79 -14q49 -6 86 -14t76 -24.5t63.5 -39t40.5 -60t16 -85.5q0 -99 -69 -154.5t-178 -66.5l-13 -39q64 -2 89 -35.5t17 -75.5q-12 -53 -66.5 -77t-115 -9.5t-91.5 60.5z" />
<glyph unicode="&#x15f;" horiz-adv-x="499" d="M130 -176l51 40q21 -27 62.5 -29t50.5 25q7 25 -23.5 37t-57.5 -6l-28 21l27 73q-111 9 -184 86l60 87q64 -67 170 -69q37 -1 63 13.5t26 40.5q0 51 -98 57q-39 3 -72 11.5t-64.5 25t-49.5 46.5t-18 70q0 41 19.5 72t51 48t66.5 25.5t71 8.5q118 0 192 -65l-68 -80 q-47 44 -122 44q-90 0 -90 -49q0 -48 92 -54q33 -2 58.5 -6t55.5 -14.5t50 -27t33.5 -44.5t13.5 -66q0 -63 -46 -107.5t-131 -52.5l-11 -35q35 0 58.5 -9.5t32.5 -24.5t12.5 -33t-1.5 -35q-11 -50 -61.5 -72t-106.5 -8.5t-84 56.5z" />
<glyph unicode="&#x160;" horiz-adv-x="664" d="M605 585l-105 -54q-19 32 -65.5 55t-100.5 23q-71 0 -108 -26t-37 -67q0 -29 23 -47.5t54 -26.5t79 -14q49 -6 86 -14t76 -24.5t63.5 -39t40.5 -60t16 -85.5q0 -75 -42 -126.5t-106.5 -74t-145.5 -22.5q-235 0 -305 172l110 57q22 -55 75.5 -83t121.5 -28q69 0 115 26 t46 79q0 86 -162 103q-61 7 -104.5 18.5t-85.5 34.5t-63.5 63t-21.5 96q0 68 42 116t101 67.5t128 20.5q207 0 275 -139zM305 782l-148 138v6h124l59 -61l64 61h120v-6l-152 -138h-67z" />
<glyph unicode="&#x161;" horiz-adv-x="497" d="M444 442l-68 -80q-47 44 -122 44q-90 0 -90 -49q0 -48 92 -54q33 -2 58.5 -6t55.5 -14.5t50 -27t33.5 -44.5t13.5 -66q0 -69 -55.5 -115.5t-156.5 -46.5q-68 0 -123 18t-105 70l60 87q64 -67 170 -69q37 -1 63 13.5t26 40.5q0 51 -98 57q-39 3 -72 11.5t-64.5 25 t-49.5 46.5t-18 70q0 41 19.5 72t51 48t66.5 25.5t71 8.5q118 0 192 -65zM220 562l-142 132v6h119l57 -59l61 59h115v-6l-145 -132h-65z" />
<glyph unicode="&#x162;" horiz-adv-x="610" d="M239 0v580h-222v120h576v-120h-222v-580h-44l-14 -47q66 -2 89 -34t15 -76q-12 -55 -64.5 -80t-111.5 -10t-89 63l53 45q22 -30 66 -32t53 28q8 29 -24.5 42t-60.5 -7l-29 23z" />
<glyph unicode="&#x163;" horiz-adv-x="415" d="M121 619l122 13v-140h136v-105h-137v-213q0 -34 17.5 -52t46.5 -18t59 15l34 -104q-49 -20 -101 -21h-8l-14 -40q63 -2 86.5 -33.5t15.5 -71.5q-9 -39 -42.5 -62t-74 -26t-81.5 13t-63 49l52 42q22 -27 65 -29t53 25q8 26 -24.5 38.5t-60.5 -6.5l-25 22l32 94 q-88 40 -88 165v213h-92v105h92v127z" />
<glyph unicode="&#x164;" horiz-adv-x="610" d="M239 0v580h-222v120h576v-120h-222v-580h-132zM272 763l-148 138v6h124l59 -61l64 61h120v-6l-152 -138h-67z" />
<glyph unicode="&#x165;" horiz-adv-x="472" d="M110 619l122 13v-140h101v-105h-102v-213q0 -34 17.5 -52t46.5 -18t59 15l34 -104q-49 -20 -101 -21q-82 -3 -129.5 43.5t-47.5 136.5v213h-81v105h81v127zM369 441l42 186h113l-70 -186h-85z" />
<glyph unicode="&#x166;" horiz-adv-x="616" d="M136 293v96h106v191h-222v120h576v-120h-222v-191h112v-96h-112v-293h-132v293h-106z" />
<glyph unicode="&#x167;" horiz-adv-x="415" d="M49 219v86h72v82h-92v105h92v127l122 13v-140h136v-105h-137v-82h103v-86h-103v-45q0 -34 17.5 -52t46.5 -18t59 15l34 -104q-49 -20 -101 -21q-82 -3 -129.5 43.5t-47.5 136.5v45h-72z" />
<glyph unicode="&#x168;" horiz-adv-x="762" d="M557 699h131v-401q0 -151 -83 -232t-220 -81q-134 0 -222.5 81t-88.5 232v401h131v-401q0 -93 49 -143t132 -50q81 0 126 51t45 142v401zM300 779l-76 41q43 106 129 86q12 -3 43 -18.5t49 -13t32 30.5l80 -38q-21 -55 -54.5 -76.5t-71.5 -11.5q-12 3 -28.5 12t-28 15 t-25 8.5t-26 -6t-23.5 -29.5z" />
<glyph unicode="&#x169;" d="M58 493h122v-258q0 -58 31 -95t88 -37q55 0 90.5 40t35.5 98v252h121v-494h-109l-8 67q-75 -74 -167 -74q-91 0 -147.5 65t-56.5 177v259zM218 590l-76 41q43 106 129 86q12 -3 43 -18.5t49 -13t32 30.5l80 -38q-21 -55 -54.5 -76.5t-71.5 -11.5q-12 3 -28.5 12t-28 15 t-25 8.5t-26 -6t-23.5 -29.5z" />
<glyph unicode="&#x16a;" horiz-adv-x="762" d="M557 699h131v-401q0 -151 -83 -232t-220 -81q-134 0 -222.5 81t-88.5 232v401h131v-401q0 -93 49 -143t132 -50q81 0 126 51t45 142v401zM203 780v102h358v-102h-358z" />
<glyph unicode="&#x16b;" d="M58 493h122v-258q0 -58 31 -95t88 -37q55 0 90.5 40t35.5 98v252h121v-494h-109l-8 67q-75 -74 -167 -74q-91 0 -147.5 65t-56.5 177v259zM135 607v95h333v-95h-333z" />
<glyph unicode="&#x16c;" horiz-adv-x="762" d="M557 699h131v-401q0 -151 -83 -232t-220 -81q-134 0 -222.5 81t-88.5 232v401h131v-401q0 -93 49 -143t132 -50q81 0 126 51t45 142v401zM435 913h98q8 -93 -71.5 -131.5t-159.5 0.5t-72 131h99q0 -35 26.5 -49.5t53 0t26.5 49.5z" />
<glyph unicode="&#x16d;" d="M58 493h122v-258q0 -58 31 -95t88 -37q55 0 90.5 40t35.5 98v252h121v-494h-109l-8 67q-75 -74 -167 -74q-91 0 -147.5 65t-56.5 177v259zM361 694h98q8 -89 -71.5 -126t-159 0.5t-71.5 125.5h99q0 -25 16.5 -39.5t36 -14.5t36 14.5t16.5 39.5z" />
<glyph unicode="&#x16e;" horiz-adv-x="762" d="M557 699h131v-401q0 -151 -83 -232t-220 -81q-134 0 -222.5 81t-88.5 232v401h131v-401q0 -93 49 -143t132 -50q81 0 126 51t45 142v401zM245 833q0 52 40.5 81t94.5 29q53 0 93 -29t40 -81q0 -51 -40 -79.5t-93 -28.5q-55 0 -95 28.5t-40 79.5zM378 880q-37 0 -52 -23 t0.5 -46t51.5 -23q38 0 52.5 23t-1 46t-51.5 23z" />
<glyph unicode="&#x16f;" d="M58 493h122v-258q0 -58 31 -95t88 -37q55 0 90.5 40t35.5 98v252h121v-494h-109l-8 67q-75 -74 -167 -74q-91 0 -147.5 65t-56.5 177v259zM175 649q0 52 38.5 81.5t90.5 29.5q51 0 90 -29.5t39 -81.5q0 -51 -38.5 -80t-90.5 -29t-90.5 28.5t-38.5 80.5zM302 697 q-35 0 -49.5 -23.5t0 -46.5t49.5 -23q36 0 50.5 23t-0.5 46.5t-50 23.5z" />
<glyph unicode="&#x170;" horiz-adv-x="762" d="M688 699h-131v-401q0 -91 -45 -142t-126 -51q-83 0 -132 50t-49 143v401h-131v-401q0 -151 88.5 -232t222.5 -81q137 0 220 81t83 232v401zM606 905v-3l-112 -131h-95l85 134h122zM434 906v-3l-109 -131h-97l84 134h122z" />
<glyph unicode="&#x171;" d="M180 493h-122v-259q0 -112 56.5 -177t147.5 -65q92 0 167 74l8 -67h109v494h-121v-252q0 -58 -35.5 -98t-90.5 -40q-57 0 -88 37t-31 95v258zM518 701v-4l-107 -124h-91l81 128h117zM354 702v-4l-105 -124h-92l80 128h117z" />
<glyph unicode="&#x172;" horiz-adv-x="763" d="M557 699h131v-401q0 -110 -45.5 -184t-126.5 -106h1q-24 -9 -37 -31t-4 -42q7 -20 42 -19.5t66 26.5l67 -51q-25 -40 -75.5 -57.5t-100 -8t-72.5 41.5q-47 65 -18 120q-140 1 -225.5 81t-85.5 230v401h131v-401q0 -93 49 -143t132 -50q81 0 126 51t45 142v401z" />
<glyph unicode="&#x173;" d="M546 493v-555q-37 5 -73.5 -12.5t-26.5 -50.5q7 -22 39 -26.5t67 22.5l62 -47q-21 -34 -61 -49.5t-79.5 -11.5t-74 26.5t-44.5 58.5q-6 13 -4 34t9 40.5t27 37.5t50 26l-8 80q-75 -74 -167 -74q-91 0 -147.5 65t-56.5 177v259h122v-258q0 -58 31 -95t88 -37q55 0 90.5 40 t35.5 98v252h121z" />
<glyph unicode="&#x174;" horiz-adv-x="1073" d="M1061 700l-252 -700h-112l-87 220l-74 221l-73 -223l-85 -218h-112l-257 700h148l165 -505l170 505h86l175 -505l160 505h148zM341 783l160 139h72l160 -139v-6h-134l-63 59l-61 -59h-134v6z" />
<glyph unicode="&#x175;" horiz-adv-x="855" d="M374 494h107l108 -371l113 371h135l-172 -496h-142l-51 146l-44 165l-44 -165l-51 -146h-142l-173 496h136l113 -371zM245 586l150 129h68l149 -129v-6h-125l-59 56l-57 -56h-126v6z" />
<glyph unicode="&#x176;" horiz-adv-x="695" d="M168 700l178 -289l186 289h159v-6l-279 -405v-289h-132v289l-269 405v6h157zM157 784l153 132h69l154 -132v-6h-129l-60 57l-59 -57h-128v6z" />
<glyph unicode="&#x177;" horiz-adv-x="565" d="M421 493h135l-310 -719h-134l101 234l-197 485h142l75 -213l47 -139l51 136zM95 580l151 135h68l150 -135v-6h-126l-59 58l-58 -58h-126v6z" />
<glyph unicode="&#x178;" horiz-adv-x="695" d="M346 411l-178 289h-157v-6l269 -405v-289h132v289l279 405v6h-159zM164 841q0 31 21 49t45.5 18t45.5 -18t21 -49q0 -41 -33 -58t-66.5 0t-33.5 58zM400 841q0 31 20.5 49t45.5 18t45.5 -18t20.5 -49q0 -41 -33 -58t-66 0t-33 58z" />
<glyph unicode="&#x179;" horiz-adv-x="620" d="M51 700v-121h337l-355 -503v-76h547v125h-363l363 513v62h-529zM460 916v-5l-110 -137h-108v6l74 136h144z" />
<glyph unicode="&#x17a;" horiz-adv-x="485" d="M443 493h-395v-111h218l-236 -331v-51h415v120h-229l227 315v58zM385 698v-4l-107 -122h-106v6l72 120h141z" />
<glyph unicode="&#x17b;" horiz-adv-x="620" d="M51 700v-121h337l-355 -503v-76h547v125h-363l363 513v62h-529zM246 847q0 34 22.5 53t49.5 19t49.5 -19t22.5 -53t-22.5 -53t-49.5 -19t-49.5 19t-22.5 53z" />
<glyph unicode="&#x17c;" horiz-adv-x="485" d="M443 493h-395v-111h218l-236 -331v-51h415v120h-229l227 315v58zM177 640q0 34 22.5 53t49.5 19t49.5 -19t22.5 -53t-22.5 -53t-49.5 -19t-49.5 19t-22.5 53z" />
<glyph unicode="&#x17d;" horiz-adv-x="620" d="M51 579v121h529v-62l-363 -513h363v-125h-547v76l355 503h-337zM291 772l-153 136v6h128l61 -60l66 60h123v-6l-156 -136h-69z" />
<glyph unicode="&#x17e;" horiz-adv-x="485" d="M48 493h395v-58l-227 -315h229v-120h-415v51l236 331h-218v111zM217 554l-148 138v6h124l59 -61l64 61h120v-6l-152 -138h-67z" />
<glyph unicode="&#x17f;" horiz-adv-x="324" d="M238 0h-122v379h-92v107h92v33q0 94 54 143.5t134 49.5q66 0 128 -40l-45 -91q-40 26 -75 26q-33 0 -53.5 -22.5t-20.5 -65.5v-519z" />
<glyph unicode="&#x192;" horiz-adv-x="473" d="M143 -2v381h-92v107h92v33q0 94 54 143.5t134 49.5q66 0 128 -40l-45 -91q-40 26 -75 26q-33 0 -53.5 -22.5t-20.5 -65.5v-33h145v-107h-145v-381q0 -94 -54 -143.5t-134 -49.5q-58 0 -113 36l45 91q34 -22 60 -22q33 0 53.5 22.5t20.5 65.5z" />
<glyph unicode="&#x1fa;" horiz-adv-x="779" d="M390 553l130 -298h-260zM387 789q33 0 47.5 -20.5t1 -41.5t-48.5 -21q-34 0 -48 21t0 41.5t48 20.5zM265 747q0 -48 41 -74l-302 -673h143l60 132h366l59 -132h144l-303 674q39 27 39 73t-36.5 72t-86.5 26t-87 -26t-37 -72zM555 958v-4l-117 -90h-114v4l78 90h153z" />
<glyph unicode="&#x1fb;" horiz-adv-x="638" d="M451 425q-21 36 -64 58t-93 22q-112 1 -184.5 -67t-72.5 -191q0 -126 70.5 -194.5t183.5 -67.5q46 1 93 24t67 63l6 -72h115v493h-117zM305 396q55 0 92.5 -31t46 -75t0 -87.5t-46 -74.5t-92.5 -31q-63 0 -104.5 40.5t-41.5 109.5t41.5 109t104.5 40zM195 630 q0 -47 35 -72.5t83 -25.5q47 0 81.5 25.5t34.5 72.5q0 46 -35 72.5t-81 26.5q-48 0 -83 -26.5t-35 -72.5zM311 672q31 0 45 -21t1 -41.5t-46 -20.5q-32 0 -45 20.5t0 41.5t45 21zM477 854v-3l-108 -98h-107v4l73 97h142z" />
<glyph unicode="&#x1fc;" horiz-adv-x="911" d="M855 0v127h-295v161h281v122h-281v166h292v124h-432l-444 -700h151l89 141h220v-141h419zM436 258h-146l156 279l-10 -154v-125zM691 917v-5l-110 -137h-108v6l74 136h144z" />
<glyph unicode="&#x1fd;" horiz-adv-x="985" d="M949 203q14 67 -0.5 125t-49.5 96t-82.5 60t-98.5 23q-112 2 -171 -76v62h-92l-4 -68q-21 36 -64 58t-93 22q-112 1 -184.5 -67t-72.5 -191q0 -126 70.5 -194.5t183.5 -67.5q46 1 93 24t67 63l1 -72h90l5 64q50 -77 162 -77q59 0 117 20.5t95 59.5l-78 77 q-20 -21 -58 -33.5t-74 -12.5q-63 0 -102 29t-45 76h385zM305 396q48 0 83 -22t51 -55.5t16 -72t-16 -72t-51 -55.5t-83 -22q-63 0 -104.5 40.5t-41.5 109.5t41.5 109t104.5 40zM566 304q13 47 50 71.5t88 24.5q54 0 88 -24.5t40 -71.5h-266zM635 706v-5l-104 -130h-102v5 l70 130h136z" />
<glyph unicode="&#x1fe;" horiz-adv-x="802" d="M402 714q-87 0 -157.5 -31.5t-113.5 -84t-66 -117.5t-23 -136q0 -83 30.5 -157t89.5 -124l-82 -136h127l49 81q66 -25 146 -25q89 0 159 31t112.5 82.5t64.5 115t23 133.5q1 84 -32 161t-96 129l78 130h-128l-45 -75q-66 23 -136 23zM402 105q-44 0 -82 11l247 411 q66 -72 64 -183q-2 -98 -58.5 -168.5t-170.5 -70.5zM402 594q35 0 72 -10l-245 -407q-55 65 -57 166q-2 63 20.5 118t77 94t132.5 39zM556 926v-5l-110 -137h-108v6l74 136h144z" />
<glyph unicode="&#x1ff;" horiz-adv-x="585" d="M291 503q-115 0 -185 -74t-70 -183q0 -125 83 -197l-67 -114h115l39 66q45 -12 86 -12q117 0 187 73.5t70 183.5q0 121 -84 194l66 112h-115l-37 -63q-42 14 -88 14zM292 392q15 0 28 -3l-137 -232q-25 37 -25 89q0 60 35.5 103t98.5 43zM292 101q-18 0 -26 2l135 228 q25 -39 25 -85q0 -60 -35.5 -102.5t-98.5 -42.5zM424 699v-4l-99 -124h-98v5l67 123h130z" />
<glyph unicode="&#x218;" horiz-adv-x="664" d="M419 -143q0 -12 -44 -146h-67l19 96q-46 8 -46 53q0 25 14 42t34.5 20.5t41 -1t34.5 -22t14 -42.5zM605 585l-105 -54q-19 32 -65.5 55t-100.5 23q-71 0 -108 -26t-37 -67q0 -29 23 -47.5t54 -26.5t79 -14q49 -6 86 -14t76 -24.5t63.5 -39t40.5 -60t16 -85.5 q0 -75 -42 -126.5t-106.5 -74t-145.5 -22.5q-235 0 -305 172l110 57q22 -55 75.5 -83t121.5 -28q69 0 115 26t46 79q0 86 -162 103q-61 7 -104.5 18.5t-85.5 34.5t-63.5 63t-21.5 96q0 68 42 116t101 67.5t128 20.5q207 0 275 -139z" />
<glyph unicode="&#x219;" horiz-adv-x="497" d="M323 -133q0 -12 -40 -134h-61l17 88q-42 6 -42 48q0 23 13 39t31.5 19t37 -1t31.5 -20t13 -39zM444 442l-68 -80q-47 44 -122 44q-90 0 -90 -49q0 -48 92 -54q33 -2 58.5 -6t55.5 -14.5t50 -27t33.5 -44.5t13.5 -66q0 -69 -55.5 -115.5t-156.5 -46.5q-68 0 -123 18 t-105 70l60 87q64 -67 170 -69q37 -1 63 13.5t26 40.5q0 51 -98 57q-39 3 -72 11.5t-64.5 25t-49.5 46.5t-18 70q0 41 19.5 72t51 48t66.5 25.5t71 8.5q118 0 192 -65z" />
<glyph unicode="&#x21a;" horiz-adv-x="610" d="M373 -142q0 -12 -44 -146h-67l19 96q-46 8 -46 53q0 25 14 42t34.5 20.5t41 -1t34.5 -22t14 -42.5zM239 0v580h-222v120h576v-120h-222v-580h-132z" />
<glyph unicode="&#x21b;" horiz-adv-x="415" d="M317 -132q0 -12 -40 -134h-61l17 88q-42 6 -42 48q0 23 13 39t31.5 19t37 -1t31.5 -20t13 -39zM121 619l122 13v-140h136v-105h-137v-213q0 -34 17.5 -52t46.5 -18t59 15l34 -104q-49 -20 -101 -21q-82 -3 -129.5 43.5t-47.5 136.5v213h-92v105h92v127z" />
<glyph unicode="&#x237;" horiz-adv-x="253" d="M66 495h121v-547q0 -100 -40.5 -148t-123.5 -48q-59 0 -109 33l44 95q32 -15 59 -14q29 1 39 20t10 62v547z" />
<glyph unicode="&#x2c6;" horiz-adv-x="425" d="M22 577l148 138h67l148 -138v-6h-124l-58 59l-57 -59h-124v6z" />
<glyph unicode="&#x2c7;" horiz-adv-x="405" d="M164 556l-148 138v6h124l59 -61l64 61h120v-6l-152 -138h-67z" />
<glyph unicode="&#x2d8;" horiz-adv-x="369" d="M231 699h98q8 -93 -71.5 -131.5t-159.5 0.5t-72 131h99q0 -35 26.5 -49.5t53 0t26.5 49.5z" />
<glyph unicode="&#x2d9;" horiz-adv-x="198" d="M11 640q0 34 22.5 53t49.5 19t49.5 -19t22.5 -53t-22.5 -53t-49.5 -19t-49.5 19t-22.5 53z" />
<glyph unicode="&#x2da;" horiz-adv-x="314" d="M15 593q0 57 39.5 89t93.5 32q53 0 92.5 -32t39.5 -89t-39.5 -88.5t-92.5 -31.5q-54 0 -93.5 31.5t-39.5 88.5zM146 645q-36 0 -51 -25.5t0 -51t51 -25.5q37 0 51.5 25.5t-0.5 51t-51 25.5z" />
<glyph unicode="&#x2db;" horiz-adv-x="377" d="M245 -144l62 -47q-21 -34 -61 -49.5t-79.5 -11.5t-74 26.5t-44.5 58.5q-5 16 -3.5 35.5t11 42.5t31 39t58 24t91.5 -1l15 -52q-35 9 -79 -7.5t-33 -53.5q7 -22 39 -26.5t67 22.5z" />
<glyph unicode="&#x2dc;" horiz-adv-x="397" d="M104 643l-76 41q43 106 129 86q12 -3 43 -18.5t49 -13t32 30.5l80 -38q-21 -55 -54.5 -76.5t-71.5 -11.5q-12 3 -28.5 12t-28 15t-25 8.5t-26 -6t-23.5 -29.5z" />
<glyph unicode="&#x2dd;" horiz-adv-x="435" d="M410 701v-4l-118 -137h-100l89 141h129zM229 702v-4l-115 -137h-102l88 141h129z" />
<glyph unicode="&#x394;" horiz-adv-x="749" d="M435 700l314 -700h-772l314 700h144zM363 556l-191 -436h380z" />
<glyph unicode="&#x3a9;" horiz-adv-x="792" d="M381 594q-111 0 -172 -71t-62 -166q-1 -79 40.5 -146t116.5 -94v-117h-252v113h94q-127 108 -127 247q0 150 102.5 252t259.5 102t259.5 -102t102.5 -252q0 -139 -127 -247h94v-113h-252v117q75 27 116.5 94t40.5 146q-1 95 -62 166t-172 71z" />
<glyph unicode="&#x3bc;" horiz-adv-x="620" d="M566 0h-119l-12 51q-17 -35 -51.5 -54t-66.5 -19q-88 0 -117 71v-265h-126v692h129v-261q0 -57 35.5 -90.5t82.5 -33.5t80.5 35t33.5 101v249h131v-476z" />
<glyph unicode="&#x3c0;" horiz-adv-x="683" d="M249 0h-121v387h-104v106h625v-106h-104v-225q0 -86 84 -68l11 -97q-104 -20 -160 21.5t-56 141.5v227h-175v-387z" />
<glyph unicode="&#x1e80;" horiz-adv-x="1073" d="M1061 700l-252 -700h-112l-87 220l-74 221l-73 -223l-85 -218h-112l-257 700h148l165 -505l170 505h86l175 -505l160 505h148zM380 910v5h144l74 -136v-6h-108z" />
<glyph unicode="&#x1e81;" horiz-adv-x="855" d="M374 494h107l108 -371l113 371h135l-172 -496h-142l-51 146l-44 165l-44 -165l-51 -146h-142l-173 496h136l113 -371zM288 694v5h136l70 -130v-5h-102z" />
<glyph unicode="&#x1e82;" horiz-adv-x="1073" d="M809 0l252 700h-148l-160 -505l-175 505h-86l-170 -505l-165 505h-148l257 -700h112l85 218l73 223l74 -221l87 -220h112zM682 906v-5l-106 -125h-105v5l72 125h139z" />
<glyph unicode="&#x1e83;" horiz-adv-x="855" d="M481 494h-107l-107 -371l-113 371h-136l173 -496h142l51 146l44 165l44 -165l51 -146h142l172 496h-135l-113 -371zM570 699v-5l-102 -127h-101v5l69 127h134z" />
<glyph unicode="&#x1e84;" horiz-adv-x="1073" d="M809 0l252 700h-148l-160 -505l-175 505h-86l-170 -505l-165 505h-148l257 -700h112l85 218l73 223l74 -221l87 -220h112zM339 843q0 30 22 47.5t48 17.5t48 -17.5t22 -47.5q0 -40 -35 -56.5t-70 0t-35 56.5zM588 843q0 30 22 47.5t48 17.5t48 -17.5t22 -47.5 q0 -40 -35 -56.5t-70 0t-35 56.5z" />
<glyph unicode="&#x1e85;" horiz-adv-x="855" d="M481 494h-107l-107 -371l-113 371h-136l173 -496h142l51 146l44 165l44 -165l51 -146h142l172 496h-135l-113 -371zM247 650q0 31 20.5 49t45 18t45 -18t20.5 -49q0 -30 -20.5 -47.5t-45 -17.5t-45 17.5t-20.5 47.5zM481 650q0 31 20.5 49t45 18t45 -18t20.5 -49 q0 -30 -20.5 -47.5t-45 -17.5t-45 17.5t-20.5 47.5z" />
<glyph unicode="&#x1ef2;" horiz-adv-x="695" d="M168 700l178 -289l186 289h159v-6l-279 -405v-289h-132v289l-269 405v6h157zM201 902v4h140l71 -131v-6h-104z" />
<glyph unicode="&#x1ef3;" horiz-adv-x="565" d="M421 493h135l-310 -719h-134l101 234l-197 485h142l75 -213l47 -139l51 136zM142 695v4h140l72 -118v-6h-105z" />
<glyph unicode="&#x2013;" horiz-adv-x="601" d="M64 231v108h473v-108h-473z" />
<glyph unicode="&#x2014;" horiz-adv-x="691" d="M61 233v108h569v-108h-569z" />
<glyph unicode="&#x2018;" horiz-adv-x="258" d="M218 701l-48 -225h-126l78 225h96z" />
<glyph unicode="&#x2019;" horiz-adv-x="252" d="M49 475l48 225h126l-78 -225h-96z" />
<glyph unicode="&#x201a;" horiz-adv-x="266" d="M29 -128l48 225h126l-78 -225h-96z" />
<glyph unicode="&#x201c;" horiz-adv-x="428" d="M387 699l-48 -225h-126l78 225h96zM218 699l-48 -225h-126l78 225h96z" />
<glyph unicode="&#x201d;" horiz-adv-x="421" d="M49 475l48 225h126l-78 -225h-96zM218 475l48 225h126l-78 -225h-96z" />
<glyph unicode="&#x201e;" horiz-adv-x="443" d="M29 -128l48 225h126l-78 -225h-96zM206 -128l48 225h126l-78 -225h-96z" />
<glyph unicode="&#x2020;" horiz-adv-x="590" d="M362 699v-187h195v-110h-195v-518h-134v518h-195v110h195v187h134z" />
<glyph unicode="&#x2021;" horiz-adv-x="630" d="M381 699v-185h196v-110h-196v-221h196v-109h-196v-199h-132v199h-196v109h196v221h-196v110h196v185h132z" />
<glyph unicode="&#x2022;" horiz-adv-x="412" d="M207 149q-56 0 -93 35t-37 91t37 91.5t93 35.5q55 0 91.5 -35.5t36.5 -91.5t-36.5 -91t-91.5 -35z" />
<glyph unicode="&#x2026;" horiz-adv-x="708" d="M54 63q0 34 22.5 53t49.5 19t49.5 -19t22.5 -53t-22.5 -53t-49.5 -19t-49.5 19t-22.5 53zM282 63q0 34 22.5 53t49.5 19t49.5 -19t22.5 -53t-22.5 -53t-49.5 -19t-49.5 19t-22.5 53zM510 63q0 34 22.5 53t49.5 19t49.5 -19t22.5 -53t-22.5 -53t-49.5 -19t-49.5 19 t-22.5 53z" />
<glyph unicode="&#x2030;" horiz-adv-x="1150" d="M202 713q45 0 80 -17.5t53 -45t26.5 -61t0 -67t-26.5 -61t-53 -45t-80 -17.5t-80 17.5t-53 45t-26.5 61t0 67t26.5 61t53 45t80 17.5zM549 701h141l-460 -702h-142zM582 307q45 0 80 -17.5t53 -45t26.5 -61t0 -67t-26.5 -61t-53 -45t-80 -17.5t-80 17.5t-53 45t-26.5 61 t0 67t26.5 61t53 45t80 17.5zM582 215q-30 0 -47.5 -20.5t-17.5 -45t17.5 -45t47.5 -20.5t47.5 20.5t17.5 45t-17.5 45t-47.5 20.5zM202 622q-30 0 -47.5 -20.5t-17.5 -45t17.5 -45t47.5 -20.5t47.5 20.5t17.5 45t-17.5 45t-47.5 20.5zM954 307q45 0 80 -17.5t53 -45 t26.5 -61t0 -67t-26.5 -61t-53 -45t-80 -17.5t-80 17.5t-53 45t-26.5 61t0 67t26.5 61t53 45t80 17.5zM954 215q-30 0 -47.5 -20.5t-17.5 -45t17.5 -45t47.5 -20.5t47.5 20.5t17.5 45t-17.5 45t-47.5 20.5z" />
<glyph unicode="&#x2039;" horiz-adv-x="342" d="M35 296l139 221h130l-138 -221l138 -222h-130z" />
<glyph unicode="&#x203a;" horiz-adv-x="342" d="M169 520l139 -221l-139 -222h-130l138 222l-138 221h130z" />
<glyph unicode="&#x2044;" horiz-adv-x="165" d="M225 707h106l-388 -711h-105z" />
<glyph unicode="&#x2070;" horiz-adv-x="401" d="M123 672v-55q0 -50 38 -70.5t76.5 0t38.5 70.5v55q0 39 -24 61t-52.5 22t-52.5 -22t-24 -61zM37 619v54q0 44 18 79t47 53t63.5 26.5t69.5 0t64 -26.5t47 -53t18 -79v-54q0 -45 -18 -80.5t-47 -53.5t-63.5 -26.5t-69.5 0t-64 26.5t-47 53.5t-18 80.5z" />
<glyph unicode="&#x2074;" horiz-adv-x="390" d="M193 829h115v-225h46v-77h-46v-65h-88v65h-192l-4 75zM220 604v140l-105 -140h105z" />
<glyph unicode="&#x2075;" horiz-adv-x="368" d="M314 828v-77h-185v-50h57q67 0 109.5 -29.5t41.5 -95.5q0 -62 -42.5 -94t-104.5 -32q-67 0 -109.5 29t-43.5 90h88q1 -39 61 -39q62 0 62 46q0 48 -62 48h-143v204h271z" />
<glyph unicode="&#x2076;" horiz-adv-x="382" d="M193 533q27 0 45.5 11t18.5 33t-17.5 34t-45.5 12q-29 0 -47.5 -12t-17.5 -34q0 -44 64 -44zM194 698q152 0 152 -121q0 -59 -45.5 -90t-107.5 -31q-61 0 -106.5 32t-45.5 90v137q0 57 44.5 88.5t105.5 31.5q65 0 108 -27.5t43 -81.5h-89q-4 33 -61 33q-26 0 -44 -10.5 t-18 -33.5v-40q23 23 64 23z" />
<glyph unicode="&#x2077;" horiz-adv-x="323" d="M150 461h-99l143 288h-166v79h277l4 -37z" />
<glyph unicode="&#x2078;" horiz-adv-x="390" d="M124 567q-1 -18 18.5 -32t52.5 -14q32 0 51.5 13.5t18.5 32.5q0 20 -20 32.5t-49 12.5q-30 0 -51 -12t-21 -33zM35 567q0 23 15 46t42 34q-22 9 -34.5 29.5t-12.5 43.5q0 55 42.5 84t106.5 29t108 -29t44 -84q0 -49 -47 -70q27 -11 41.5 -35t14.5 -48q1 -62 -45.5 -91 t-115.5 -28q-68 0 -114 28.5t-45 90.5zM132 719q2 -40 63 -40q59 0 61 40q1 20 -17.5 31t-44.5 11t-44.5 -11.5t-17.5 -30.5z" />
<glyph unicode="&#x2079;" horiz-adv-x="382" d="M189 759q-27 0 -45.5 -11t-18.5 -33t17.5 -34t45.5 -12q29 0 47.5 12t17.5 34q0 44 -64 44zM188 594q-152 0 -152 121q0 59 45.5 90t107.5 31q61 0 106.5 -32t45.5 -90v-137q0 -57 -44.5 -88.5t-105.5 -31.5q-65 0 -108 27.5t-43 81.5h89q4 -33 61 -33q26 0 44 10.5 t18 33.5v40q-23 -23 -64 -23z" />
<glyph unicode="&#x2080;" horiz-adv-x="401" d="M123 126v-55q0 -50 38 -70.5t76.5 0t38.5 70.5v55q0 51 -38 72.5t-76.5 0.5t-38.5 -73zM37 73v54q0 44 18 79t47 53t63.5 26.5t69.5 0t64 -26.5t47 -53t18 -79v-54q0 -45 -18 -80.5t-47 -53.5t-63.5 -26.5t-69.5 0t-64 26.5t-47 53.5t-18 80.5z" />
<glyph unicode="&#x2081;" horiz-adv-x="274" d="M35 -84v77h62v192l-53 -12v75l141 36v-291h64v-77h-214z" />
<glyph unicode="&#x2082;" horiz-adv-x="372" d="M127 177h-88q1 55 43.5 84.5t98.5 29.5q71 0 112.5 -29.5t41.5 -89.5q0 -43 -21.5 -68.5t-52.5 -34t-61.5 -13t-52 -14.5t-21.5 -30v-11h204l-1 -85h-292v96q0 41 21.5 65t52 32.5t61 14t52 16.5t21.5 32q0 42 -62 42q-23 0 -39 -9.5t-17 -27.5z" />
<glyph unicode="&#x2083;" horiz-adv-x="378" d="M187 74h-57v67h53q32 0 46.5 7.5t15.5 31.5q0 7 -4 15t-19 16t-38 8q-58 0 -67 -36h-78q0 55 44 83t102 28t103 -29.5t46 -84.5q0 -24 -12.5 -45t-35.5 -28q26 -8 41.5 -30t15.5 -46q0 -42 -26 -70.5t-60.5 -39t-73.5 -10.5q-60 0 -105 29t-46 86h92q11 -35 62 -35 q26 0 45 9.5t19 28.5q0 45 -63 45z" />
<glyph unicode="&#x2084;" horiz-adv-x="385" d="M193 283h115v-225h42v-77h-42v-65h-88v65h-192l-4 75zM220 58v140l-105 -140h105z" />
<glyph unicode="&#x2085;" horiz-adv-x="368" d="M314 286v-77h-185v-50h57q67 0 109.5 -29.5t41.5 -95.5q0 -62 -42.5 -94t-104.5 -32q-67 0 -109.5 29t-43.5 90h88q1 -39 61 -39q62 0 62 46q0 48 -62 48h-143v204h271z" />
<glyph unicode="&#x2086;" horiz-adv-x="382" d="M193 -11q27 0 45.5 11t18.5 33t-17.5 34t-45.5 12q-29 0 -47.5 -12t-17.5 -34q0 -44 64 -44zM194 154q152 0 152 -121q0 -59 -45.5 -90t-107.5 -31q-61 0 -106.5 32t-45.5 90v137q0 57 44.5 88.5t105.5 31.5q65 0 108 -27.5t43 -81.5h-89q-4 33 -61 33q-26 0 -44 -10.5 t-18 -33.5v-40q23 23 64 23z" />
<glyph unicode="&#x2087;" horiz-adv-x="323" d="M150 -84h-99l143 288h-166v79h277l4 -37z" />
<glyph unicode="&#x2088;" horiz-adv-x="390" d="M124 27q-1 -18 18.5 -32t52.5 -14q32 0 51.5 13.5t18.5 32.5q0 20 -20 32.5t-49 12.5q-30 0 -51 -12t-21 -33zM35 27q0 23 15 46t42 34q-22 9 -34.5 29.5t-12.5 43.5q0 55 42.5 84t106.5 29t108 -29t44 -84q0 -49 -47 -70q27 -11 41.5 -35t14.5 -48q1 -62 -45.5 -91 t-115.5 -28q-68 0 -114 28.5t-45 90.5zM132 179q2 -40 63 -40q59 0 61 40q1 20 -17.5 31t-44.5 11t-44.5 -11.5t-17.5 -30.5z" />
<glyph unicode="&#x2089;" horiz-adv-x="382" d="M189 212q-27 0 -45.5 -11t-18.5 -33t17.5 -34t45.5 -12q29 0 47.5 12t17.5 34q0 44 -64 44zM188 47q-152 0 -152 121q0 59 45.5 90t107.5 31q61 0 106.5 -32t45.5 -90v-137q0 -57 -44.5 -88.5t-105.5 -31.5q-65 0 -108 27.5t-43 81.5h89q4 -33 61 -33q26 0 44 10.5 t18 33.5v40q-23 -23 -64 -23z" />
<glyph unicode="&#x20ac;" horiz-adv-x="614" d="M543 123l37 -122q-57 -17 -121 -17q-147 0 -232.5 65t-114.5 176h-68v97h54v23q0 20 1 30h-55v98h71q32 110 118 175.5t226 65.5q57 0 108 -16l-42 -118q-29 8 -66 8q-146 0 -210 -115h228l-22 -98h-236q-1 -10 -1 -30q0 -16 1 -23h220l-20 -97h-173q59 -117 213 -117 q42 0 84 15z" />
<glyph unicode="&#x2113;" horiz-adv-x="394" d="M200 242v-95q0 -44 37 -61.5t93 -4.5v-69q-101 -33 -166 2t-65 149l-49 -24l-14 46q34 14 62 30v333q0 91 34 129t122 38q135 0 110 -193q-17 -146 -164 -280zM197 548q0 -26 -0.5 -112.5t-0.5 -124.5q107 123 120 220q2 28 4 57t-14 52t-50 23q-28 0 -43.5 -34.5 t-15.5 -80.5z" />
<glyph unicode="&#x2117;" horiz-adv-x="817" d="M408 716q168 0 265 -105t97 -260t-97 -260t-265 -105q-167 0 -264 105t-97 260t97 260t264 105zM153 351q1 -117 69 -193.5t186 -76.5q119 0 187 76.5t68 193.5t-68 193.5t-187 76.5q-118 0 -186 -76.5t-69 -193.5zM373 265h79q53 0 88.5 27.5t43.5 66.5t-0.5 78 t-44.5 66.5t-88 27.5h-175v-367h97v101zM373 444h78q28 0 39.5 -24t0 -47.5t-39.5 -23.5h-78v95z" />
<glyph unicode="&#x2122;" horiz-adv-x="815" d="M254 621v-212h-95v212h-95v80h286v-80h-96zM482 702l79 -97l79 97h100v-293h-97v87l7 85l-80 -107h-20l-78 107l7 -85v-87h-97v293h100z" />
<glyph unicode="&#x2126;" horiz-adv-x="822" d="M411 594q-111 0 -172 -71t-62 -166q-1 -79 40.5 -146t116.5 -94v-117h-252v113h94q-127 108 -127 247q0 150 102.5 252t259.5 102t259.5 -102t102.5 -252q0 -139 -127 -247h94v-113h-252v117q75 27 116.5 94t40.5 146q-1 95 -62 166t-172 71z" />
<glyph unicode="&#x212e;" horiz-adv-x="630" d="M323 -7q-116 0 -192 78t-76 218q0 142 75.5 219.5t191.5 77.5q58 0 106.5 -17t87 -53t57 -100.5t11.5 -152.5h-402v-170q58 -53 141 -53q125 0 190 93l37 -29q-43 -61 -98 -86t-129 -25zM322 539q-87 0 -140 -46v-183h283v186q-55 43 -143 43z" />
<glyph unicode="&#x2153;" horiz-adv-x="793" d="M46 334v77h62v192l-53 -12v75l141 36v-291h64v-77h-214zM603 156h-57v67h53q32 0 46.5 7.5t15.5 31.5q0 7 -4 15t-19 16t-38 8q-58 0 -67 -36h-78q0 55 44 83t102 28t103 -29.5t46 -84.5q0 -24 -12.5 -45t-35.5 -28q26 -8 41.5 -30t15.5 -46q0 -42 -26 -70.5t-60.5 -39 t-73.5 -10.5q-60 0 -105 29t-46 86h92q11 -35 62 -35q26 0 45 9.5t19 28.5q0 45 -63 45zM514 707h103l-389 -711h-101z" />
<glyph unicode="&#x2154;" horiz-adv-x="871" d="M681 156h-57v67h53q32 0 46.5 7.5t15.5 31.5q0 7 -4 15t-19 16t-38 8q-58 0 -67 -36h-78q0 55 44 83t102 28t103 -29.5t46 -84.5q0 -24 -12.5 -45t-35.5 -28q26 -8 41.5 -30t15.5 -46q0 -42 -26 -70.5t-60.5 -39t-73.5 -10.5q-60 0 -105 29t-46 86h92q11 -35 62 -35 q26 0 45 9.5t19 28.5q0 45 -63 45zM592 707h103l-389 -711h-101zM136 595h-88q1 55 43.5 84.5t98.5 29.5q71 0 112.5 -29.5t41.5 -89.5q0 -36 -15.5 -60t-38.5 -33.5t-50.5 -16.5t-50.5 -10t-38.5 -13t-15.5 -27v-11h204l-1 -85h-292v96q0 41 21.5 65t52 32.5t61 14t52 16.5 t21.5 32q0 42 -62 42q-23 0 -39 -9.5t-17 -27.5z" />
<glyph unicode="&#x215b;" horiz-adv-x="809" d="M46 334v77h62v192l-53 -12v75l141 36v-291h64v-77h-214zM514 707h103l-389 -711h-101zM544 111q-1 -18 18.5 -32t52.5 -14q32 0 51.5 13.5t18.5 32.5q0 20 -20 32.5t-49 12.5q-30 0 -51 -12t-21 -33zM455 111q0 23 15 46t42 34q-22 9 -34.5 29.5t-12.5 43.5q0 55 42.5 84 t106.5 29t108 -29t44 -84q0 -49 -47 -70q27 -11 41.5 -35t14.5 -48q1 -62 -45.5 -91t-115.5 -28q-68 0 -114 28.5t-45 90.5zM552 263q2 -40 63 -40q59 0 61 40q1 20 -17.5 31t-44.5 11t-44.5 -11.5t-17.5 -30.5z" />
<glyph unicode="&#x215c;" horiz-adv-x="876" d="M581 707h103l-389 -711h-101zM611 111q-1 -18 18 -32t53 -14q32 0 51.5 13.5t18.5 32.5q0 20 -20 32.5t-49 12.5q-30 0 -51 -12t-21 -33zM522 111q0 23 15 46t42 34q-22 9 -34.5 29.5t-12.5 43.5q0 55 42.5 84t106.5 29t108 -29t44 -84q0 -49 -47 -70q27 -11 41.5 -35 t14.5 -48q1 -62 -45.5 -91t-115.5 -28q-68 0 -114 28.5t-45 90.5zM619 263q2 -40 63 -40q59 0 61 40q1 20 -17.5 31t-44.5 11t-44.5 -11.5t-17.5 -30.5zM192 488h-57v67h53q32 0 46.5 7.5t15.5 31.5q0 7 -4 15t-19 16t-38 8q-58 0 -67 -36h-78q0 55 44 83t102 28t103 -29.5 t46 -84.5q0 -24 -12.5 -45t-35.5 -28q26 -8 41.5 -30t15.5 -46q0 -42 -26 -70.5t-60.5 -39t-73.5 -10.5q-60 0 -105 29t-46 86h92q11 -35 62 -35q26 0 45 9.5t19 28.5q0 45 -63 45z" />
<glyph unicode="&#x215d;" horiz-adv-x="873" d="M578 707h103l-389 -711h-101zM608 111q-1 -18 18.5 -32t52.5 -14q32 0 51.5 13.5t18.5 32.5q0 20 -20 32.5t-49 12.5q-30 0 -51 -12t-21 -33zM519 111q0 23 15 46t42 34q-22 9 -34.5 29.5t-12.5 43.5q0 55 42.5 84t106.5 29t108 -29t44 -84q0 -49 -47 -70 q27 -11 41.5 -35t14.5 -48q1 -62 -45.5 -91t-115.5 -28q-68 0 -114 28.5t-45 90.5zM616 263q2 -40 63 -40q59 0 61 40q1 20 -17.5 31t-44.5 11t-44.5 -11.5t-17.5 -30.5zM318 699v-77h-185v-50h57q67 0 109.5 -29.5t41.5 -95.5q0 -62 -42.5 -94t-104.5 -32q-67 0 -109.5 29 t-43.5 90h88q1 -39 61 -39q62 0 62 46q0 48 -62 48h-143v204h271z" />
<glyph unicode="&#x215e;" horiz-adv-x="789" d="M484 707h103l-389 -711h-101zM524 111q-1 -18 18.5 -32t52.5 -14q32 0 51.5 13.5t18.5 32.5q0 20 -20 32.5t-49 12.5q-30 0 -51 -12t-21 -33zM435 111q0 23 15 46t42 34q-22 9 -34.5 29.5t-12.5 43.5q0 55 42.5 84t106.5 29t108 -29t44 -84q0 -49 -47 -70 q27 -11 41.5 -35t14.5 -48q1 -62 -45.5 -91t-115.5 -28q-68 0 -114 28.5t-45 90.5zM532 263q2 -40 63 -40q59 0 61 40q1 20 -17.5 31t-44.5 11t-44.5 -11.5t-17.5 -30.5zM160 333h-99l143 288h-166v79h277l4 -37z" />
<glyph unicode="&#x2190;" horiz-adv-x="628" d="M267 115l-236 235l237 235l64 -61l-120 -121h363v-108h-364l117 -124z" />
<glyph unicode="&#x2191;" horiz-adv-x="532" d="M31 395l235 236l235 -237l-61 -64l-121 120v-363h-108v364l-124 -117z" />
<glyph unicode="&#x2192;" horiz-adv-x="630" d="M363 586l236 -235l-237 -235l-64 61l120 121h-363v108h364l-117 124z" />
<glyph unicode="&#x2193;" horiz-adv-x="532" d="M501 308l-235 -236l-235 237l61 64l121 -120v363h108v-364l124 117z" />
<glyph unicode="&#x2196;" horiz-adv-x="515" d="M61 207v333l333 -1l3 -88l-171 -1l257 -257l-77 -76l-257 257l-5 -170z" />
<glyph unicode="&#x2197;" horiz-adv-x="515" d="M121 539h333l-1 -333l-88 -3l-1 171l-257 -257l-76 77l257 257l-170 5z" />
<glyph unicode="&#x2198;" horiz-adv-x="552" d="M460 155h-333l-3 83l170 5l-257 257l76 77l257 -257l1 171l88 -3z" />
<glyph unicode="&#x2199;" horiz-adv-x="552" d="M425 155h-333l1 333l88 3l1 -171l257 257l76 -77l-257 -257l170 -5z" />
<glyph unicode="&#x2202;" horiz-adv-x="586" d="M235 478q42 6 86.5 -2.5t67.5 -28.5q-21 55 -99.5 100t-146.5 55l22 99q171 -23 276 -146.5t105 -303.5q0 -117 -68 -188.5t-186 -71.5q-121 0 -188 73t-67 174q0 87 51.5 155t146.5 85zM292 100q61 0 95 41t34 98q0 56 -34 97t-95 41t-95.5 -41t-34.5 -97 q0 -57 34.5 -98t95.5 -41z" />
<glyph unicode="&#x2206;" horiz-adv-x="824" d="M484 700l314 -700h-772l314 700h144zM412 556l-191 -436h380z" />
<glyph unicode="&#x220f;" horiz-adv-x="690" d="M607 -191h-131v769h-261v-769h-132v891h524v-891z" />
<glyph unicode="&#x2211;" horiz-adv-x="596" d="M386 363l-166 -238h324v-125h-505v76l201 289l-189 273v62h487v-121h-297z" />
<glyph unicode="&#x2212;" horiz-adv-x="525" d="M67 236v113h391v-113h-391z" />
<glyph unicode="&#x2215;" horiz-adv-x="466" d="M376 707h106l-388 -711h-105z" />
<glyph unicode="&#x2219;" horiz-adv-x="266" d="M57 315q0 47 38 66.5t76 0t38 -66.5t-38 -66.5t-76 0t-38 66.5z" />
<glyph unicode="&#x221a;" d="M605 697l-231 -697h-88l-165 320l-78 -32l-31 75l180 81l146 -312l196 586z" />
<glyph unicode="&#x221e;" horiz-adv-x="758" d="M216 161q-79 1 -122.5 48t-43.5 111q0 66 46 115t126 49q75 0 156 -96q86 96 158 96q81 0 127 -49t46 -115q0 -64 -43.5 -111t-122.5 -48q-79 -3 -165 95q-84 -98 -162 -95zM218 255q18 0 37 10t29.5 18.5t30.5 28.5l9 9l-5 6q-21 22 -32 32t-30.5 21t-38.5 11 q-37 0 -58 -20.5t-21 -48.5q0 -27 21 -46.5t58 -20.5zM541 255q37 1 57.5 20.5t20.5 46.5q0 28 -20.5 48.5t-57.5 20.5q-19 0 -38.5 -10.5t-31.5 -21.5t-31 -32l-5 -6q1 -1 5 -4.5t5 -4.5h-1q57 -57 97 -57z" />
<glyph unicode="&#x222b;" horiz-adv-x="492" d="M177 -2v521q0 94 54 143.5t134 49.5q66 0 128 -40l-45 -91q-40 26 -75 26q-33 0 -53.5 -22.5t-20.5 -65.5v-521q0 -94 -54 -143.5t-134 -49.5q-58 0 -113 36l45 91q34 -22 60 -22q33 0 53.5 22.5t20.5 65.5z" />
<glyph unicode="&#x2248;" horiz-adv-x="582" d="M147 326l-80 47q17 39 50 63.5t70 30.5q43 6 105.5 -18.5t79.5 -26.5q52 -8 67 38l79 -37q-19 -54 -59.5 -82t-100.5 -17q-19 3 -76 26t-82 19q-29 -5 -53 -43zM147 113l-80 47q35 80 120 94q43 6 105.5 -18.5t79.5 -26.5q52 -8 68 39l78 -38q-19 -54 -59.5 -82 t-100.5 -17q-19 3 -76 26t-82 19q-28 -4 -53 -43z" />
<glyph unicode="&#x2260;" horiz-adv-x="591" d="M79 143v110h158l66 116h-224v111h288l46 81l51 -29l-30 -52h77v-111h-140l-66 -116h206v-110h-269l-45 -80l-51 30l28 50h-95z" />
<glyph unicode="&#x2264;" horiz-adv-x="454" d="M58 79v99h334v-99h-334zM66 427v13l240 205l71 -74l-163 -138l163 -137l-71 -74z" />
<glyph unicode="&#x2265;" horiz-adv-x="454" d="M396 178v-99h-334v99h334zM388 440v-13l-240 -205l-71 74l162 137l-162 138l71 74z" />
<glyph unicode="&#x25ca;" horiz-adv-x="589" d="M558 351l-213 -343h-101l-213 343l213 345h101zM161 351l134 -231l133 231l-133 232z" />
<glyph unicode="&#x25fc;" horiz-adv-x="495" d="M0 495h495v-495h-495v495z" />
<glyph unicode="&#xfb01;" horiz-adv-x="637" d="M370 590l38 95q-51 27 -104 27q-80 0 -134 -49.5t-54 -143.5v-33h-92v-106h92v-380h122v380h144v106h-144v33q0 43 20.5 65.5t53.5 22.5q27 0 58 -17zM572 495h-122v-495h122v495zM439 632q0 34 22.5 53t49.5 19t49.5 -19t22.5 -53t-22.5 -53t-49.5 -19t-49.5 19 t-22.5 53z" />
<glyph unicode="&#xfb02;" horiz-adv-x="634" d="M401 690l-28 -99q-28 16 -61 16t-53.5 -22.5t-20.5 -65.5v-33h135v-107h-135v-379h-122v379h-92v107h92v33q0 94 54 143.5t134 49.5q50 0 97 -22zM444 699h121v-699h-121v699z" />
<glyph horiz-adv-x="202" />
<glyph horiz-adv-x="0" />
<glyph horiz-adv-x="500" />
<glyph horiz-adv-x="639" d="M305 396q-63 0 -104.5 -40t-41.5 -109t41.5 -109.5t104.5 -40.5q55 0 92.5 31t46 74.5t0 87.5t-46 75t-92.5 31zM62 -58l120 -1q3 -42 39.5 -63t94.5 -21t96.5 32.5t38.5 101.5v81q-20 -40 -67 -63t-93 -24q-113 -1 -183.5 67.5t-70.5 194.5q0 123 72.5 191t184.5 67 q50 0 93 -22t64 -58l4 68h118v-505q0 -66 -22 -115t-60 -76.5t-81.5 -40t-93.5 -12.5q-119 0 -186.5 50.5t-67.5 147.5z" />
<glyph horiz-adv-x="639" d="M305 396q-63 0 -104.5 -40t-41.5 -109t41.5 -109.5t104.5 -40.5q55 0 92.5 31t46 74.5t0 87.5t-46 75t-92.5 31zM62 -58l120 -1q3 -42 39.5 -63t94.5 -21t96.5 32.5t38.5 101.5v81q-20 -40 -67 -63t-93 -24q-113 -1 -183.5 67.5t-70.5 194.5q0 123 72.5 191t184.5 67 q50 0 93 -22t64 -58l4 68h118v-505q0 -66 -22 -115t-60 -76.5t-81.5 -40t-93.5 -12.5q-119 0 -186.5 50.5t-67.5 147.5zM142 584l148 138h67l148 -138v-6h-124l-58 59l-57 -59h-124v6z" />
<glyph horiz-adv-x="639" d="M305 396q-63 0 -104.5 -40t-41.5 -109t41.5 -109.5t104.5 -40.5q55 0 92.5 31t46 74.5t0 87.5t-46 75t-92.5 31zM62 -58l120 -1q3 -42 39.5 -63t94.5 -21t96.5 32.5t38.5 101.5v81q-20 -40 -67 -63t-93 -24q-113 -1 -183.5 67.5t-70.5 194.5q0 123 72.5 191t184.5 67 q50 0 93 -22t64 -58l4 68h118v-505q0 -66 -22 -115t-60 -76.5t-81.5 -40t-93.5 -12.5q-119 0 -186.5 50.5t-67.5 147.5zM375 711h97q8 -91 -71.5 -128.5t-159.5 0.5t-72 128h98q0 -35 27 -49.5t54 0t27 49.5z" />
<glyph horiz-adv-x="639" d="M305 396q55 0 92.5 -31t46 -75t0 -87.5t-46 -74.5t-92.5 -31q-63 0 -104.5 40.5t-41.5 109.5t41.5 109t104.5 40zM182 -59l-120 1q0 -97 67.5 -147.5t186.5 -50.5q50 0 93.5 12.5t81.5 40t60 76.5t22 115v505h-118l-4 -68q-21 36 -64 58t-93 22q-112 1 -184.5 -67 t-72.5 -191q0 -126 70.5 -194.5t183.5 -67.5q46 1 93 24t67 63v-81q0 -69 -38.5 -101.5t-96.5 -32.5t-94.5 21t-39.5 63zM241 653q0 34 22.5 53t49.5 19t49.5 -19t22.5 -53t-22.5 -53t-49.5 -19t-49.5 19t-22.5 53z" />
<glyph horiz-adv-x="639" d="M305 396q55 0 92.5 -31t46 -75t0 -87.5t-46 -74.5t-92.5 -31q-63 0 -104.5 40.5t-41.5 109.5t41.5 109t104.5 40zM182 -59l-120 1q0 -97 67.5 -147.5t186.5 -50.5q50 0 93.5 12.5t81.5 40t60 76.5t22 115v505h-118l-4 -68q-21 36 -64 58t-93 22q-112 1 -184.5 -67 t-72.5 -191q0 -126 70.5 -194.5t183.5 -67.5q46 1 93 24t67 63v-81q0 -69 -38.5 -101.5t-96.5 -32.5t-94.5 21t-39.5 63zM239 641v1q0 4 2 8l6 16t13 36.5t23 67.5h69l-18 -78q47 -8 47 -54q0 -43 -35.5 -60t-71 1.5t-35.5 61.5z" />
<glyph horiz-adv-x="559" d="M338 -130q0 -12 -45 -150h-69l19 99q-47 8 -47 54q0 43 35.5 60t71 -1.5t35.5 -61.5z" />
<glyph horiz-adv-x="550" d="M180 629q0 12 45 150h69l-19 -99q47 -8 47 -54q0 -43 -35.5 -60t-71 1.5t-35.5 61.5z" />
<glyph horiz-adv-x="705" d="M183 401v-101q0 -46 14.5 -83t38.5 -60t54.5 -35.5t62 -12.5t62 12.5t54.5 35.5t38.5 60t14.5 83v101q0 51 -18.5 92t-48.5 62t-66 31t-72.5 0t-66.5 -30.5t-48.5 -61.5t-18.5 -93zM52 300v101q0 76 26 137t68 98.5t96 58t110.5 20t110.5 -20.5t96 -57.5t68 -99 t26 -136.5v-101q0 -75 -26 -136.5t-68 -99t-96 -57.5t-110.5 -20.5t-110.5 20t-96 58t-68 98.5t-26 137z" />
<glyph horiz-adv-x="705" d="M117 0v112h180v420l-162 -49v120l293 97v-588h186v-112h-497z" />
<glyph horiz-adv-x="705" d="M203 497h-131q16 212 286 212q55 0 102 -11.5t87.5 -35.5t63.5 -68t23 -103q0 -64 -22.5 -108.5t-64 -67t-88 -32t-106.5 -9.5q-35 0 -66 -6t-58.5 -28t-27.5 -57v-60h435v-123h-567v184q0 58 24.5 100t66.5 65t90 33.5t103 10.5q24 0 47 4t48 13t40.5 29t15.5 49 q0 51 -41 78t-104 29q-67 0 -110.5 -23.5t-45.5 -74.5z" />
<glyph horiz-adv-x="705" d="M354 305h-109v108h101q62 0 104 19.5t43 64.5q0 37 -34 65t-110 28q-34 0 -65.5 -7.5t-56 -28t-24.5 -50.5h-132q0 71 44 119.5t104.5 67.5t130.5 19q110 0 192 -54.5t83 -158.5q0 -44 -26.5 -84t-70.5 -54q49 -16 81.5 -59t32.5 -88q0 -49 -18 -88.5t-47 -64 t-68.5 -40.5t-79.5 -22.5t-83 -6.5q-53 0 -101.5 11.5t-91 36t-68 67.5t-25.5 100h133q0 -48 50 -72.5t104 -24.5q59 0 107.5 26t48.5 77q0 94 -149 94z" />
<glyph horiz-adv-x="705" d="M359 699h201v-438h82v-128h-82v-133h-130v133h-374l-12 134zM193 261h237v324z" />
<glyph horiz-adv-x="705" d="M598 699v-124h-378v-123h136q58 0 107 -12.5t89 -38t62.5 -70.5t22.5 -104q0 -113 -80 -174t-194 -61q-127 0 -206.5 52t-80.5 167h131q0 -52 46.5 -74.5t107.5 -22.5q56 0 100.5 28t44.5 85q1 54 -43 78t-107 24h-265v370h507z" />
<glyph horiz-adv-x="705" d="M199 481v4v-105q22 34 69.5 54t92.5 20q56 0 105 -12.5t91.5 -38.5t67.5 -72.5t25 -109.5q0 -109 -87 -170.5t-203 -61.5q-75 0 -139.5 25t-108.5 79.5t-44 129.5v261q0 110 85 169.5t203 59.5q124 0 205.5 -51.5t81.5 -155.5h-132q0 44 -46 68.5t-107 24.5 q-63 1 -111 -31.5t-48 -86.5zM360 107q67 0 113 29.5t46 84.5q0 56 -44.5 87t-113.5 31q-70 0 -116.5 -31t-45.5 -87q1 -55 46.5 -84.5t114.5 -29.5z" />
<glyph horiz-adv-x="705" d="M314 0h-152l286 574h-349v126h522l7 -70z" />
<glyph horiz-adv-x="705" d="M352 309q-67 0 -115 -25.5t-49 -74.5q-1 -43 43 -74t121 -31t121 30.5t43 74.5q-1 49 -47 74.5t-117 25.5zM50 211q1 44 28.5 87t78.5 63q-88 47 -88 138q0 101 81 157t201 56t203.5 -56.5t83.5 -156.5q0 -40 -23 -77t-67 -55q50 -20 77.5 -65.5t28.5 -90.5 q2 -114 -86 -171t-217 -56q-81 1 -147 22t-110.5 74t-43.5 131zM204 503q1 -44 44.5 -71t103.5 -27q62 0 104.5 26.5t43.5 71.5q1 44 -40.5 71.5t-108.5 27.5q-70 0 -109.5 -30t-37.5 -69z" />
<glyph horiz-adv-x="705" d="M506 221v-4v105q-22 -34 -69.5 -54t-92.5 -20q-56 0 -105 12.5t-91.5 38.5t-67.5 72.5t-25 109.5q0 109 87 170.5t203 61.5q75 0 139.5 -25t108.5 -79.5t44 -129.5v-261q0 -110 -85 -169.5t-203 -59.5q-80 0 -143.5 20.5t-105.5 68.5t-42 118h132q0 -44 47.5 -68.5 t109.5 -24.5q63 -1 111 31.5t48 86.5zM345 595q-67 0 -113 -29.5t-46 -84.5q0 -56 44.5 -87t113.5 -31q70 0 116.5 31t45.5 87q-1 55 -46.5 84.5t-114.5 29.5z" />
<glyph horiz-adv-x="705" d="M589 123l37 -122q-57 -17 -121 -17q-147 0 -232.5 65t-114.5 176h-68v97h54v23q0 20 1 30h-55v98h71q32 110 118 175.5t226 65.5q57 0 108 -16l-42 -118q-29 8 -66 8q-146 0 -210 -115h228l-22 -98h-236q-1 -10 -1 -30q0 -16 1 -23h220l-20 -97h-173q59 -117 213 -117 q42 0 84 15z" />
<glyph horiz-adv-x="705" d="M503 138l75 -88q-60 -57 -134 -71v-70h-113v72q-89 20 -144.5 90t-55.5 163q0 91 54.5 161.5t145.5 91.5v73h113v-72q77 -15 133 -70l-71 -79q-20 20 -52.5 32t-60.5 12q-58 0 -99.5 -43t-41.5 -106q0 -62 41.5 -105t99.5 -43q26 0 57.5 15t52.5 37z" />
<glyph horiz-adv-x="705" d="M264 480q0 -35 16 -103h207v-111h-184q4 -41 -11.5 -82t-53.5 -59h392v-125h-552v125q48 12 71 49.5t21 91.5h-92v111h71q-18 70 -18 101q0 110 68 171.5t187 61.5q109 0 172.5 -51.5t68.5 -159.5h-121q-9 95 -119 95q-65 0 -94 -32t-29 -83z" />
<glyph horiz-adv-x="705" d="M285 -2v381h-145v107h145v33q0 94 54 143.5t134 49.5q66 0 128 -40l-45 -91q-40 26 -75 26q-33 0 -53.5 -22.5t-20.5 -65.5v-33h157v-107h-157v-381q0 -94 -54 -143.5t-134 -49.5q-58 0 -113 36l45 91q34 -22 60 -22q33 0 53.5 22.5t20.5 65.5z" />
<glyph horiz-adv-x="705" d="M127 117v95h155v51h-155v97h108l-222 334v6h157l178 -289l186 289h159v-6l-230 -334h105v-97h-154v-51h154v-95h-154v-117h-132v117h-155z" />
<glyph horiz-adv-x="705" d="M629 579l-106 -49q-20 32 -68 53.5t-99 21.5q-68 0 -112.5 -22.5t-44.5 -70.5q0 -23 12 -39t38.5 -25.5t49 -13.5t61.5 -9q45 -6 73 -10.5t67.5 -14.5t63.5 -25t48 -37t35 -55t11 -75q0 -95 -68 -152.5t-166 -64.5v-99h-125v94q-89 8 -158 49.5t-102 119.5l117 49 q19 -46 76 -75t120 -29q73 0 122 27t49 81q0 79 -174 100q-51 5 -84.5 11t-74 20t-64 34.5t-40 56t-16.5 82.5q0 90 66 140t163 62v86h125v-86q151 -23 205 -135z" />
<glyph horiz-adv-x="403" d="M124 206v-55q0 -50 38 -70.5t76.5 0t38.5 70.5v55q0 39 -24 61t-52.5 22t-52.5 -22t-24 -61zM38 153v54q0 44 18 79t47 53t63.5 26.5t69.5 0t64 -26.5t47 -53t18 -79v-54q0 -45 -18 -80.5t-47 -53.5t-63.5 -26.5t-69.5 0t-64 26.5t-47 53.5t-18 80.5z" />
<glyph horiz-adv-x="275" d="M36 0v77h62v192l-53 -12v75l141 36v-291h64v-77h-214z" />
<glyph horiz-adv-x="373" d="M128 261h-88q1 55 43.5 84.5t98.5 29.5q71 0 112.5 -29.5t41.5 -89.5q0 -36 -15.5 -60t-38.5 -33.5t-50.5 -16.5t-50.5 -10t-38.5 -13t-15.5 -27v-11h204l-1 -85h-292v96q0 41 21.5 65t52 32.5t61 14t52 16.5t21.5 32q0 42 -62 42q-23 0 -39 -9.5t-17 -27.5z" />
<glyph horiz-adv-x="378" d="M187 154h-57v67h53q32 0 46.5 7.5t15.5 31.5q0 7 -4 15t-19 16t-38 8q-58 0 -67 -36h-78q0 55 44 83t102 28t103 -29.5t46 -84.5q0 -24 -12.5 -45t-35.5 -28q26 -8 41.5 -30t15.5 -46q0 -42 -26 -70.5t-60.5 -39t-73.5 -10.5q-60 0 -105 29t-46 86h92q11 -35 62 -35 q26 0 45 9.5t19 28.5q0 45 -63 45z" />
<glyph horiz-adv-x="386" d="M193 367h115v-225h42v-77h-42v-65h-88v65h-192l-4 75zM220 142v140l-105 -140h105z" />
<glyph horiz-adv-x="369" d="M315 367v-77h-185v-50h57q67 0 109.5 -29.5t41.5 -95.5q0 -62 -42.5 -94t-104.5 -32q-67 0 -109.5 29t-43.5 90h88q1 -39 61 -39q62 0 62 46q0 48 -62 48h-143v204h271z" />
<glyph horiz-adv-x="383" d="M194 71q27 0 45.5 11t18.5 33t-17.5 34t-45.5 12q-29 0 -47.5 -12t-17.5 -34q0 -44 64 -44zM195 236q152 0 152 -121q0 -59 -45.5 -90t-107.5 -31q-61 0 -106.5 32t-45.5 90v137q0 57 44.5 88.5t105.5 31.5q65 0 108 -27.5t43 -81.5h-89q-4 33 -61 33q-26 0 -44 -10.5 t-18 -33.5v-40q23 23 64 23z" />
<glyph horiz-adv-x="323" d="M150 0h-99l143 288h-166v79h277l4 -37z" />
<glyph horiz-adv-x="390" d="M124 110q-1 -18 18.5 -32t52.5 -14q32 0 51.5 13.5t18.5 32.5q0 20 -20 32.5t-49 12.5q-30 0 -51 -12t-21 -33zM35 110q0 24 15 46.5t42 33.5q-22 9 -34.5 29.5t-12.5 43.5q0 55 42.5 84t106.5 29t108 -29t44 -84q0 -49 -47 -70q27 -11 41.5 -35t14.5 -48 q1 -62 -45.5 -91t-115.5 -28q-68 0 -114 28.5t-45 90.5zM132 262q2 -40 63 -40q59 0 61 40q1 20 -17.5 31t-44.5 11t-44.5 -11.5t-17.5 -30.5z" />
<glyph horiz-adv-x="382" d="M189 295q-27 0 -45.5 -11t-18.5 -33t17.5 -34t45.5 -12q29 0 47.5 12t17.5 34q0 44 -64 44zM188 130q-152 0 -152 121q0 59 45.5 90t107.5 31q61 0 106.5 -32t45.5 -90v-137q0 -57 -44.5 -88.5t-105.5 -31.5q-65 0 -108 27.5t-43 81.5h89q4 -33 61 -33q26 0 44 10.5 t18 33.5v40q-23 -23 -64 -23z" />
<glyph horiz-adv-x="401" d="M123 548v-55q0 -50 38 -70.5t76.5 0t38.5 70.5v55q0 39 -24 61t-52.5 22t-52.5 -22t-24 -61zM37 495v54q0 44 18 79t47 53t63.5 26.5t69.5 0t64 -26.5t47 -53t18 -79v-54q0 -45 -18 -80.5t-47 -53.5t-63.5 -26.5t-69.5 0t-64 26.5t-47 53.5t-18 80.5z" />
<glyph horiz-adv-x="276" d="M36 345v77h62v192l-53 -12v75l141 36v-291h64v-77h-214z" />
<glyph horiz-adv-x="371" d="M126 597h-88q1 55 43.5 84.5t98.5 29.5q71 0 112.5 -29.5t41.5 -89.5q0 -36 -15.5 -60t-38.5 -33.5t-50.5 -16.5t-50.5 -10t-38.5 -13t-15.5 -27v-11h204v-85h-293v96q0 41 21.5 65t52 32.5t61 14t52 16.5t21.5 32q0 42 -62 42q-23 0 -39 -9.5t-17 -27.5z" />
<glyph horiz-adv-x="378" d="M187 493h-57v67h53q32 0 46.5 7.5t15.5 31.5q0 7 -4 15t-19 16t-38 8q-58 0 -67 -36h-78q0 55 44 83t102 28t103 -29.5t46 -84.5q0 -24 -12.5 -45t-35.5 -28q26 -8 41.5 -30t15.5 -46q0 -42 -26 -70.5t-60.5 -39t-73.5 -10.5q-60 0 -105 29t-46 86h92q11 -35 62 -35 q26 0 45 9.5t19 28.5q0 45 -63 45z" />
<glyph horiz-adv-x="387" d="M193 702h115v-225h42v-77h-42v-65h-88v65h-192l-4 75zM220 477v140l-105 -140h105z" />
<glyph horiz-adv-x="368" d="M314 701v-77h-185v-50h57q67 0 109.5 -29.5t41.5 -95.5q0 -62 -42.5 -94t-104.5 -32q-67 0 -109.5 29t-43.5 90h88q1 -39 61 -39q62 0 62 46q0 48 -62 48h-143v204h271z" />
<glyph horiz-adv-x="382" d="M193 409q27 0 45.5 11t18.5 33t-17.5 34t-45.5 12q-29 0 -47.5 -12t-17.5 -34q0 -44 64 -44zM194 574q152 0 152 -121q0 -59 -45.5 -90t-107.5 -31q-61 0 -106.5 32t-45.5 90v137q0 57 44.5 88.5t105.5 31.5q65 0 108 -27.5t43 -81.5h-89q-4 33 -61 33q-26 0 -44 -10.5 t-18 -33.5v-40q23 23 64 23z" />
<glyph horiz-adv-x="323" d="M150 332h-99l143 288h-166v79h277l4 -37z" />
<glyph horiz-adv-x="390" d="M124 447q-1 -18 18.5 -32t52.5 -14q32 0 51.5 13.5t18.5 32.5q0 20 -20 32.5t-49 12.5q-30 0 -51 -12t-21 -33zM35 447q0 23 15 46t42 34q-22 9 -34.5 29.5t-12.5 43.5q0 55 42.5 84t106.5 29t108 -29t44 -84q0 -49 -47 -70q27 -11 41.5 -35t14.5 -48q1 -62 -45.5 -91 t-115.5 -28q-68 0 -114 28.5t-45 90.5zM132 599q2 -40 63 -40q59 0 61 40q1 20 -17.5 31t-44.5 11t-44.5 -11.5t-17.5 -30.5z" />
<glyph horiz-adv-x="381" d="M188 634q-27 0 -45.5 -11t-18.5 -33t17.5 -34t45.5 -12q29 0 47.5 12t17.5 34q0 44 -64 44zM187 469q-152 0 -152 121q0 59 45.5 90t107.5 31q61 0 106.5 -32t45.5 -90v-137q0 -57 -44.5 -88.5t-105.5 -31.5q-65 0 -108 27.5t-43 81.5h89q4 -33 61 -33q26 0 44 10.5 t18 33.5v40q-23 -23 -64 -23z" />
<glyph horiz-adv-x="367" d="M277 799l61 -82q-83 -66 -126.5 -161t-43.5 -203q0 -227 170 -361l-66 -89q-113 74 -171.5 195.5t-58.5 254.5q0 130 60.5 250t174.5 196z" />
<glyph horiz-adv-x="366" d="M28 722l61 82q114 -76 174.5 -196t60.5 -250q0 -133 -58.5 -254.5t-171.5 -195.5l-64 91q168 132 168 359q0 108 -43.5 203t-126.5 161z" />
<glyph horiz-adv-x="503" d="M67 283v112h369v-112h-369z" />
<glyph horiz-adv-x="366" d="M324 -97h-241v888h241v-108h-118v-670h118v-110z" />
<glyph horiz-adv-x="367" d="M284 -96h-241v110h118v670h-118v108h241v-888z" />
<glyph horiz-adv-x="366" d="M323 -7v-95q-109 -20 -163 23.5t-54 141.5v140q0 84 -70 84v91q70 0 70 84v140q0 98 54 141.5t163 23.5v-95q-48 13 -68.5 -5t-20.5 -71v-134q0 -64 -8 -83q-15 -33 -62 -47q25 -7 40.5 -18t21.5 -29.5t7 -31.5t1 -40v-10v-134q0 -53 17 -67.5t72 -8.5z" />
<glyph horiz-adv-x="284" d="M201 752v-836h-118v836h118z" />
<glyph horiz-adv-x="366" d="M43 -102v95q55 -6 72 8.5t17 67.5v134v10q0 27 1 40t7 31.5t21.5 29.5t40.5 18q-25 7 -40.5 18.5t-21.5 29.5t-7 31t-1 40v11v134q0 53 -20.5 71t-68.5 5v95q109 20 163 -23.5t54 -141.5v-140q0 -84 70 -84v-91q-70 0 -70 -84v-140q0 -98 -54 -141.5t-163 -23.5z" />
<glyph horiz-adv-x="385" d="M52 340l139 221h130l-138 -221l138 -222h-130z" />
<glyph horiz-adv-x="385" d="M194 562l139 -221l-139 -222h-130l138 222l-138 221h130z" />
<glyph horiz-adv-x="560" d="M53 349l139 221h130l-138 -221l138 -222h-130zM229 349l139 221h130l-138 -221l138 -222h-130z" />
<glyph horiz-adv-x="560" d="M368 572l139 -221l-139 -222h-130l138 222l-138 221h130zM192 572l139 -221l-139 -222h-130l138 222l-138 221h130z" />
<glyph horiz-adv-x="609" d="M68 276v108h473v-108h-473z" />
<glyph horiz-adv-x="709" d="M70 277v108h569v-108h-569z" />
<glyph horiz-adv-x="410" d="M206 198q-56 0 -93 35t-37 91t37 91.5t93 35.5q55 0 91.5 -35.5t36.5 -91.5t-36.5 -91t-91.5 -35z" />
<glyph horiz-adv-x="286" d="M67 331q0 47 38 66.5t76 0t38 -66.5t-38 -66.5t-76 0t-38 66.5z" />
<glyph horiz-adv-x="554" d="M242 506q117 0 184.5 -44.5t67.5 -152.5v-309h-110l-8 48q-54 -55 -157 -55q-81 0 -135.5 41t-54.5 124q0 78 58 120.5t140 42.5q96 0 145 -35v23q0 47 -38 69t-92 22q-80 0 -157 -34l-18 96q93 44 175 44zM151 158q0 -32 28 -48.5t67 -16.5q46 0 86.5 25.5t40.5 67.5 q-21 16 -55.5 26t-64.5 10q-45 0 -73.5 -16t-28.5 -48z" />
<glyph horiz-adv-x="554" d="M242 506q117 0 184.5 -44.5t67.5 -152.5v-309h-110l-8 48q-54 -55 -157 -55q-81 0 -135.5 41t-54.5 124q0 78 58 120.5t140 42.5q96 0 145 -35v23q0 47 -38 69t-92 22q-80 0 -157 -34l-18 96q93 44 175 44zM151 158q0 -32 28 -48.5t67 -16.5q46 0 86.5 25.5t40.5 67.5 q-21 16 -55.5 26t-64.5 10q-45 0 -73.5 -16t-28.5 -48zM135 704v5h144l66 -128v-6h-108z" />
<glyph horiz-adv-x="554" d="M242 506q-82 0 -175 -44l18 -96q77 34 157 34q54 0 92 -22t38 -69v-23q-49 35 -145 35q-82 0 -140 -42.5t-58 -120.5q0 -83 54.5 -124t135.5 -41q103 0 157 55l8 -48h110v309q0 108 -67.5 152.5t-184.5 44.5zM151 158q0 32 28.5 48t73.5 16q30 0 64.5 -10t55.5 -26 q0 -42 -40.5 -67.5t-86.5 -25.5q-39 0 -67 16.5t-28 48.5zM412 709v-5l-102 -129h-108v6l66 128h144z" />
<glyph horiz-adv-x="554" d="M242 506q117 0 184.5 -44.5t67.5 -152.5v-309h-110l-8 48q-54 -55 -157 -55q-81 0 -135.5 41t-54.5 124q0 78 58 120.5t140 42.5q96 0 145 -35v23q0 47 -38 69t-92 22q-80 0 -157 -34l-18 96q93 44 175 44zM151 158q0 -32 28 -48.5t67 -16.5q46 0 86.5 25.5t40.5 67.5 q-21 16 -55.5 26t-64.5 10q-45 0 -73.5 -16t-28.5 -48zM87 575l148 138h67l148 -138v-6h-124l-58 59l-57 -59h-124v6z" />
<glyph horiz-adv-x="554" d="M242 506q117 0 184.5 -44.5t67.5 -152.5v-309h-110l-8 48q-54 -55 -157 -55q-81 0 -135.5 41t-54.5 124q0 78 58 120.5t140 42.5q96 0 145 -35v23q0 47 -38 69t-92 22q-80 0 -157 -34l-18 96q93 44 175 44zM151 158q0 -32 28 -48.5t67 -16.5q46 0 86.5 25.5t40.5 67.5 q-21 16 -55.5 26t-64.5 10q-45 0 -73.5 -16t-28.5 -48zM185 585l-76 41q19 47 56 72t84 14q12 -3 42 -18.5t47.5 -13t31.5 30.5l80 -38q-21 -55 -53.5 -76.5t-69.5 -11.5q-12 3 -29.5 12t-31 15t-28.5 8.5t-28.5 -6t-24.5 -29.5z" />
<glyph horiz-adv-x="554" d="M242 506q-82 0 -175 -44l18 -96q77 34 157 34q54 0 92 -22t38 -69v-23q-49 35 -145 35q-82 0 -140 -42.5t-58 -120.5q0 -83 54.5 -124t135.5 -41q103 0 157 55l8 -48h110v309q0 108 -67.5 152.5t-184.5 44.5zM151 158q0 32 28.5 48t73.5 16q30 0 64.5 -10t55.5 -26 q0 -42 -40.5 -67.5t-86.5 -25.5q-39 0 -67 16.5t-28 48.5zM94 648q0 44 35 62t70 0t35 -62q0 -43 -35 -61t-70 0t-35 61zM319 648q0 44 35 62t70 0t35 -62q0 -43 -35 -61t-70 0t-35 61z" />
<glyph horiz-adv-x="554" d="M242 506q117 0 184.5 -44.5t67.5 -152.5v-309h-110l-8 48q-54 -55 -157 -55q-81 0 -135.5 41t-54.5 124q0 78 58 120.5t140 42.5q96 0 145 -35v23q0 47 -38 69t-92 22q-80 0 -157 -34l-18 96q93 44 175 44zM151 158q0 -32 28 -48.5t67 -16.5q46 0 86.5 25.5t40.5 67.5 q-21 16 -55.5 26t-64.5 10q-45 0 -73.5 -16t-28.5 -48zM105 604v98h341v-98h-341z" />
<glyph horiz-adv-x="554" d="M242 506q117 0 184.5 -44.5t67.5 -152.5v-309h-110l-8 48q-54 -55 -157 -55q-81 0 -135.5 41t-54.5 124q0 78 58 120.5t140 42.5q96 0 145 -35v23q0 47 -38 69t-92 22q-80 0 -157 -34l-18 96q93 44 175 44zM151 158q0 -32 28 -48.5t67 -16.5q46 0 86.5 25.5t40.5 67.5 q-21 16 -55.5 26t-64.5 10q-45 0 -73.5 -16t-28.5 -48zM321 709h98q8 -93 -71.5 -131.5t-159.5 0.5t-72 131h99q0 -35 26.5 -49.5t53 0t26.5 49.5z" />
<glyph horiz-adv-x="554" d="M242 506q117 0 184.5 -44.5t67.5 -152.5v-309h-110l-8 48q-54 -55 -157 -55q-81 0 -135.5 41t-54.5 124q0 78 58 120.5t140 42.5q96 0 145 -35v23q0 47 -38 69t-92 22q-80 0 -157 -34l-18 96q93 44 175 44zM151 158q0 -32 28 -48.5t67 -16.5q46 0 86.5 25.5t40.5 67.5 q-21 16 -55.5 26t-64.5 10q-45 0 -73.5 -16t-28.5 -48zM144 667q0 52 37.5 81t88.5 29q50 0 87 -29t37 -81q0 -51 -37 -79.5t-87 -28.5q-51 0 -88.5 28.5t-37.5 79.5zM268 714q-34 0 -48 -23t0 -46t48 -23q35 0 48.5 23t-1 46t-47.5 23z" />
<glyph horiz-adv-x="554" d="M242 506q-82 0 -175 -44l18 -96q77 34 157 34q54 0 92 -22t38 -69v-23q-49 35 -145 35q-82 0 -140 -42.5t-58 -120.5q0 -83 54.5 -124t135.5 -41q103 0 157 55l8 -48h110v309q0 108 -67.5 152.5t-184.5 44.5zM151 158q0 32 28.5 48t73.5 16q30 0 64.5 -10t55.5 -26 q0 -42 -40.5 -67.5t-86.5 -25.5q-39 0 -67 16.5t-28 48.5zM154 635q0 -47 35 -72.5t83 -25.5q47 0 81.5 25.5t34.5 72.5q0 46 -35 72.5t-81 26.5q-48 0 -83 -26.5t-35 -72.5zM270 677q31 0 45 -20.5t1 -41.5t-46 -21q-32 0 -45 21t0 41.5t45 20.5zM436 859v-3l-108 -98h-107 v4l73 97h142z" />
<glyph horiz-adv-x="554" d="M151 158q0 -32 28 -48.5t67 -16.5q46 0 86.5 25.5t40.5 67.5q-21 16 -55.5 26t-64.5 10q-45 0 -73.5 -16t-28.5 -48zM242 506q117 0 184.5 -44.5t67.5 -152.5v-357q-36 6 -76 -9.5t-32 -45.5q5 -22 38 -26.5t68 22.5l62 -47q-28 -45 -87 -58.5t-110.5 9.5t-61.5 73 q-1 18 0 38.5t24 46t65 41.5l-8 52q-54 -55 -157 -55q-81 0 -135.5 41t-54.5 124q0 78 58 120.5t140 42.5q96 0 145 -35v23q0 47 -38 69t-92 22q-80 0 -157 -34l-18 96q93 44 175 44z" />
<glyph d="M58 493h122v-258q0 -58 31 -95t88 -37q55 0 90.5 40t35.5 98v252h121v-505q0 -119 -69.5 -182t-166.5 -63q-102 0 -167.5 49.5t-74.5 143.5h120q22 -81 119 -81q49 0 86 36.5t37 99.5v75q-34 -42 -73.5 -58t-94.5 -16q-91 0 -147.5 65t-56.5 177v259z" />
<glyph d="M180 493h-122v-259q0 -112 56.5 -177t147.5 -65q55 0 94.5 16t73.5 58v-75q0 -63 -37 -99.5t-86 -36.5q-97 0 -119 81h-120q9 -94 74.5 -143.5t167.5 -49.5q97 0 166.5 63t69.5 182v505h-121v-252q0 -58 -35.5 -98t-90.5 -40q-57 0 -88 37t-31 95v258zM452 701v-5 l-110 -137h-108v6l74 136h144z" />
<glyph d="M58 493h122v-258q0 -58 31 -95t88 -37q55 0 90.5 40t35.5 98v252h121v-505q0 -119 -69.5 -182t-166.5 -63q-102 0 -167.5 49.5t-74.5 143.5h120q22 -81 119 -81q49 0 86 36.5t37 99.5v75q-34 -42 -73.5 -58t-94.5 -16q-91 0 -147.5 65t-56.5 177v259zM114 580l151 135h68 l150 -135v-6h-126l-59 58l-58 -58h-126v6z" />
<glyph d="M180 493h-122v-259q0 -112 56.5 -177t147.5 -65q55 0 94.5 16t73.5 58v-75q0 -63 -37 -99.5t-86 -36.5q-97 0 -119 81h-120q9 -94 74.5 -143.5t167.5 -49.5q97 0 166.5 63t69.5 182v505h-121v-252q0 -58 -35.5 -98t-90.5 -40q-57 0 -88 37t-31 95v258zM118 637 q0 44 35 62t70 0t35 -62q0 -43 -35 -61t-70 0t-35 61zM367 637q0 44 35 62t70 0t35 -62q0 -43 -35 -61t-70 0t-35 61z" />
<glyph d="M58 493h122v-258q0 -58 31 -95t88 -37q55 0 90.5 40t35.5 98v252h121v-505q0 -119 -69.5 -182t-166.5 -63q-102 0 -167.5 49.5t-74.5 143.5h120q22 -81 119 -81q49 0 86 36.5t37 99.5v75q-34 -42 -73.5 -58t-94.5 -16q-91 0 -147.5 65t-56.5 177v259zM162 696v5h144 l74 -136v-6h-108z" />
</font>
</defs>
</svg>
