<?xml version="1.0" standalone="no"?>
<!DOCTYPE svg PUBLIC "-//W3C//DTD SVG 1.1//EN" "http://www.w3.org/Graphics/SVG/1.1/DTD/svg11.dtd" >
<svg xmlns="http://www.w3.org/2000/svg">
<metadata></metadata>
<defs>
<font id="nexa_regularregular" horiz-adv-x="693" >
<font-face units-per-em="1000" ascent="750" descent="-250" />
<missing-glyph horiz-adv-x="256" />
<glyph unicode="&#xd;" horiz-adv-x="268" />
<glyph unicode=" "  horiz-adv-x="256" />
<glyph unicode="&#x09;" horiz-adv-x="256" />
<glyph unicode="&#xa0;" horiz-adv-x="256" />
<glyph unicode="!" horiz-adv-x="264" d="M175 700v-540h-87v540h87zM75 52q0 36 29 50.5t58 0t29 -50.5t-29 -50.5t-58 0t-29 50.5z" />
<glyph unicode="&#x22;" horiz-adv-x="379" d="M148 701v-261h-74v261h74zM305 701v-261h-74v261h74z" />
<glyph unicode="#" horiz-adv-x="663" d="M333 700l-39 -160h167l40 160h82l-40 -160h82v-73h-100l-61 -237h88v-75h-105l-38 -155h-82l38 155h-168l-38 -155h-81l38 155h-79v75h97l61 237h-84v73h101l39 160h82zM277 471l-63 -245h168l62 245h-167z" />
<glyph unicode="$" horiz-adv-x="668" d="M382 805v2v-95q164 -17 222 -128l-72 -36q-23 41 -79.5 65t-114.5 25q-73 0 -131.5 -30t-57.5 -90q0 -23 11 -40.5t27 -28.5t43.5 -20.5t51.5 -14.5t60 -11q41 -6 61 -9.5t56.5 -12.5t55 -17.5t44.5 -24.5t38.5 -35t22 -46.5t9.5 -61.5q-1 -93 -74.5 -144t-173.5 -57v-99 h-81v97q-88 6 -159 43t-105 108l76 36q25 -52 90 -80.5t134 -28.5q49 0 93 11.5t78 41t34 73.5q0 31 -16.5 53.5t-50 36.5t-64 21.5t-78.5 15.5q-43 7 -68 11.5t-61 14.5t-57 23t-42.5 32.5t-31.5 47t-10 63.5q-1 90 69.5 138t168.5 56v95h82z" />
<glyph unicode="%" horiz-adv-x="744" d="M193 709q60 0 101 -31.5t50.5 -76t0 -89t-50.5 -76t-101 -31.5q-43 0 -77 17t-51 43.5t-25.5 59t0 65t25.5 59t51 43.5t77 17zM550 702h92l-452 -702h-93zM193 644h-1q-55 0 -77.5 -43t0.5 -86.5t79 -43.5q33 0 55.5 18t27.5 43.5t0 50.5t-28 43t-56 18zM551 297h-1 q60 0 101 -31.5t50.5 -76t0 -89t-50.5 -76t-101 -31.5t-100.5 31.5t-50 76t0 89t50.5 76t101 31.5zM550 233q-55 0 -77.5 -43.5t0 -87.5t77.5 -44q33 0 56 18t28 43.5t-0.5 51.5t-28 44t-55.5 18z" />
<glyph unicode="&#x26;" horiz-adv-x="699" d="M484 523v2q0 109 -159 109q-84 0 -127 -35.5t-42 -86.5q1 -61 54 -89.5t117 -28.5h311v-71h-62v-130q0 -51 17.5 -83.5t58.5 -31.5v-79q-99 -7 -124 87q-59 -95 -203 -95q-126 0 -196.5 51t-70.5 156q0 54 36.5 98t89.5 62q-50 16 -81.5 58.5t-31.5 93.5q0 92 72 144.5 t184 52.5q48 0 87.5 -8.5t75 -28t56 -57t20.5 -90.5h-82zM497 324h-176q-83 0 -130 -38t-47 -86q0 -62 48 -96.5t131 -34.5q62 0 118 31t56 95v129z" />
<glyph unicode="'" horiz-adv-x="223" d="M149 702v-262h-75v262h75z" />
<glyph unicode="(" horiz-adv-x="339" d="M314 677q-88 -65 -135 -166.5t-48 -216.5q-1 -118 45.5 -219t137.5 -169l-44 -62q-109 71 -167 191t-58 255q0 133 58.5 252.5t168.5 192.5z" />
<glyph unicode=")" horiz-adv-x="339" d="M67 737q110 -72 168.5 -191.5t58.5 -252.5q0 -134 -58 -254.5t-167 -192.5l-43 61q91 68 137 169.5t45 219.5q-1 115 -48 216.5t-135 166.5z" />
<glyph unicode="*" horiz-adv-x="377" d="M243 456l-56 79l-55 -79l-53 38l61 74l-85 21l18 62l85 -30l-3 87h65l-5 -88l90 30l18 -61l-90 -21l62 -74z" />
<glyph unicode="+" horiz-adv-x="500" d="M47 383h162v161h80v-161h164v-77h-164v-165h-80v165h-162v77z" />
<glyph unicode="," horiz-adv-x="237" d="M99 -3l1 2q-35 9 -35 44q0 33 26.5 46t53.5 -1t27 -47q0 -4 -6 -22.5t-17.5 -52.5t-19.5 -59h-55z" />
<glyph unicode="-" horiz-adv-x="496" d="M69 326h358v-78h-358v78z" />
<glyph unicode="." horiz-adv-x="238" d="M65 45q0 34 27 47.5t54 -0.5t27 -48t-27 -47.5t-54 0.5t-27 48z" />
<glyph unicode="/" horiz-adv-x="491" d="M380 762h86l-356 -844h-85z" />
<glyph unicode="0" horiz-adv-x="690" d="M62 420q0 70 24.5 127t64 91.5t90.5 53.5t104 19t104 -19t90.5 -54t64 -91.5t24.5 -126.5v-140q0 -92 -42 -160t-105 -99t-136 -31t-136 30.5t-105 98.5t-42 161v140zM149 280q0 -57 21.5 -102t56 -68.5t76.5 -34t84 0.5t76.5 34t56 68.5t21.5 102.5v140 q0 57 -21.5 101.5t-56 67.5t-76.5 34t-84 0.5t-76.5 -34t-56 -68.5t-21.5 -102v-140z" />
<glyph unicode="1" horiz-adv-x="422" d="M52 73h130v518l-123 -33v80l210 62v-627h127v-73h-344v73z" />
<glyph unicode="2" horiz-adv-x="674" d="M155 506h-87q2 56 27 97t66 63t86.5 32t97.5 10t97.5 -11t85.5 -34.5t63.5 -65.5t23.5 -98q0 -57 -23.5 -99t-63.5 -65.5t-86.5 -34t-100.5 -10.5q-190 -2 -190 -121v-86h461v-83h-549v169q0 57 24 98t65.5 62.5t87.5 31.5t100 10q31 0 61.5 6t60.5 19.5t48.5 39.5 t18.5 62q0 70 -53 101t-131 33q-76 0 -132.5 -30t-57.5 -96z" />
<glyph unicode="3" horiz-adv-x="671" d="M66 518l-2 1q0 53 24.5 92t65.5 60t85.5 30.5t94.5 9.5q116 0 190.5 -53.5t75.5 -144.5q0 -54 -35 -96t-90 -55q59 -15 99 -59.5t40 -101.5q0 -100 -79 -154.5t-202 -54.5q-40 0 -77.5 5.5t-75 20t-65 36.5t-44.5 57t-17 80h87q1 -119 194 -119q86 0 139 33.5t53 92.5 q0 50 -47 87.5t-141 37.5h-113v73h107q80 0 130 33t51 83q1 48 -44.5 83.5t-134.5 35.5q-32 0 -61 -5t-58 -16t-46.5 -35t-17.5 -57h-86z" />
<glyph unicode="4" horiz-adv-x="660" d="M442 147h-404l-12 96l364 457h140v-472h85v-81h-85v-147h-88v147zM442 228v406l-324 -406h324z" />
<glyph unicode="5" horiz-adv-x="658" d="M345 439q126 0 196 -58.5t70 -160.5t-74.5 -164t-197.5 -62q-55 0 -102 10.5t-87.5 33t-64 64.5t-23.5 99h87q0 -48 31.5 -77.5t70.5 -38.5t86 -9q84 0 135.5 38.5t51.5 104.5q0 63 -46.5 100.5t-132.5 37.5h-270v343h496v-80h-411v-181h185z" />
<glyph unicode="6" horiz-adv-x="692" d="M161 350q62 85 199 85q42 0 81.5 -7.5t76 -24.5t63.5 -42t43 -63.5t16 -85.5q0 -57 -24.5 -101t-65.5 -70t-89.5 -39t-101.5 -13q-73 0 -135.5 22.5t-105.5 75.5t-43 128v286q0 101 81.5 155.5t194.5 54.5q116 0 194 -48.5t82 -141.5h-87q-2 55 -56.5 85.5t-131.5 30.5 t-134 -37t-57 -100v-150zM359 69q50 1 92 14t72 46t30 83q0 73 -56 109t-136 36q-79 0 -138.5 -38t-59.5 -107q0 -72 58.5 -107.5t137.5 -35.5z" />
<glyph unicode="7" horiz-adv-x="561" d="M442 618h-411v82h512l7 -56l-350 -644h-99z" />
<glyph unicode="8" horiz-adv-x="703" d="M57 198q0 57 38 102t97 62q-120 47 -120 152q0 52 24 91.5t65 62.5t89 34.5t101 11.5q72 0 133 -19t105 -65.5t44 -115.5q0 -51 -34 -91.5t-90 -59.5q58 -17 97 -64t40 -103q0 -59 -25.5 -102t-69.5 -66t-93.5 -33t-106.5 -10t-105.5 10t-93 33t-70 66.5t-25.5 103.5z M545 516q0 41 -31 70.5t-74 42t-90 12.5q-48 0 -90.5 -13t-71.5 -42.5t-29 -69.5q1 -59 60.5 -89t131.5 -30q45 0 87 11t74.5 39.5t32.5 68.5zM351 328q-47 1 -92 -10.5t-80 -42.5t-35 -76q0 -67 62.5 -100.5t143.5 -33.5q51 0 96 12.5t79 43.5t34 77q0 44 -35.5 75 t-80.5 43t-92 12z" />
<glyph unicode="9" horiz-adv-x="690" d="M532 202v153q-60 -88 -199 -88q-42 0 -81.5 7.5t-76 24.5t-63.5 42t-43 63.5t-16 85.5q0 57 24.5 101t65.5 70t89.5 39t101.5 13q73 0 135.5 -22.5t105.5 -75.5t43 -128v-286q0 -101 -81.5 -155.5t-194.5 -54.5q-117 0 -195 48.5t-82 141.5h87q2 -53 57 -83t132 -30 q76 0 133.5 36t57.5 98zM334 634q-49 -1 -90.5 -14t-72 -46.5t-30.5 -83.5q0 -72 56.5 -108.5t135.5 -36.5t138 38t59 107q0 72 -58 108t-138 36z" />
<glyph unicode=":" horiz-adv-x="245" d="M69 341q0 25 16.5 39.5t37 14.5t37 -14.5t16.5 -39.5t-16.5 -39.5t-37 -14.5t-37 14.5t-16.5 39.5zM69 46q0 25 16.5 39.5t37 14.5t37 -14.5t16.5 -39.5t-16.5 -39.5t-37 -14.5t-37 14.5t-16.5 39.5z" />
<glyph unicode=";" horiz-adv-x="247" d="M178 341q0 -33 -26.5 -47t-53.5 -0.5t-27 46.5t26.5 47t53.5 0.5t27 -46.5zM104 -2h1q-35 9 -35 45q0 33 26.5 46t53.5 -1t27 -47q0 -4 -6 -22t-18 -53t-20 -59h-54z" />
<glyph unicode="&#x3c;" horiz-adv-x="374" d="M264 535l52 -56l-176 -163l179 -162l-55 -57l-219 205v28z" />
<glyph unicode="=" horiz-adv-x="560" d="M73 458h414v-77h-414v77zM73 247h414v-77h-414v77z" />
<glyph unicode="&#x3e;" horiz-adv-x="376" d="M331 330v-28l-220 -205l-54 54l179 165l-177 165l52 54z" />
<glyph unicode="?" horiz-adv-x="607" d="M119 500h-84q0 54 22.5 95.5t61 65t84.5 35.5t98 12q53 0 99 -11t85 -34t61.5 -64.5t22.5 -97.5q0 -34 -9 -61.5t-19 -44t-33 -33.5t-33 -22.5t-39 -18t-32 -13.5q-52 -20 -68 -46t-16 -93h-87q0 96 31 138.5t104 68.5q28 11 42 18t34 22t29 36.5t9 50.5q0 38 -17 65 t-46 39.5t-58.5 18t-63.5 5.5q-43 0 -81.5 -12t-67.5 -42.5t-29 -76.5zM223 54q0 36 28.5 50.5t57.5 0t29 -50.5t-29 -50.5t-57.5 0t-28.5 50.5z" />
<glyph unicode="@" horiz-adv-x="903" d="M456 606q-140 0 -234.5 -91t-94.5 -237q0 -149 92.5 -232.5t233.5 -83.5q79 0 149 39l34 -59q-82 -50 -184 -50q-175 0 -288 104t-113 282q0 175 115 285t290 110q182 0 292.5 -102.5t110.5 -287.5q0 -151 -79 -215q-30 -24 -65 -27t-60 18.5t-24 62.5 q-25 -45 -77.5 -70.5t-103.5 -25.5q-106 0 -179.5 71.5t-73.5 176.5q0 115 72 182.5t181 67.5q52 0 101 -26t72 -69l4 70l66 -6v-359q0 -16 9.5 -23.5t22 -4t20.5 14.5q44 45 44 163q0 162 -87 242t-246 80zM451 451q-79 0 -127 -47t-48 -129q0 -81 48 -128t126 -47 q83 0 128.5 51.5t45.5 125.5q0 73 -45 123.5t-128 50.5z" />
<glyph unicode="A" horiz-adv-x="760" d="M331 700h98l314 -700h-94l-69 154h-400l-68 -154h-95zM546 234l-166 378l-166 -378h332z" />
<glyph unicode="B" horiz-adv-x="707" d="M93 700h306q101 0 168 -50.5t67 -145.5q0 -49 -27 -87t-77 -57q60 -17 93 -65.5t33 -101.5q0 -54 -21 -93t-58.5 -60t-81 -30.5t-96.5 -9.5h-306v700zM180 621v-222h223q66 0 105.5 25.5t39.5 78.5q0 57 -41 87.5t-108 30.5h-219zM180 320v-238h219q31 0 58 5t54 16.5 t42.5 35t15.5 57.5q-1 61 -51 92.5t-115 31.5h-223z" />
<glyph unicode="C" horiz-adv-x="710" d="M675 93q-105 -104 -260 -104q-175 0 -269.5 103.5t-95.5 253.5q-1 96 38 177t124 134.5t203 53.5q149 0 256 -105l-60 -56q-79 78 -196 78q-134 0 -206.5 -82t-71.5 -199q2 -116 73 -195.5t205 -79.5q118 0 199 81z" />
<glyph unicode="D" horiz-adv-x="750" d="M93 700v1h255q86 0 155 -29t111 -78t64 -109.5t22 -126.5q0 -69 -21 -131.5t-62.5 -114t-111 -82t-157.5 -30.5h-255v700zM348 87q130 0 197.5 80.5t67.5 191.5q0 106 -69 182t-196 76h-168v-530h168z" />
<glyph unicode="E" horiz-adv-x="651" d="M93 0v700h492v-80h-406v-219h389v-81h-389v-237h422v-83h-508z" />
<glyph unicode="F" horiz-adv-x="626" d="M93 700h486v-83h-399v-244h382v-81h-382v-293h-87v701z" />
<glyph unicode="G" horiz-adv-x="745" d="M672 609l-50 -58q-40 39 -96 60.5t-111 21.5q-130 0 -204 -83.5t-74 -205.5q0 -115 72.5 -195t207.5 -80q109 0 191 71v166h-218v77h297v-277q-111 -119 -271 -119q-90 0 -161.5 29t-115 79t-66 113.5t-22.5 135.5q-1 161 98 265.5t266 104.5q151 0 257 -105z" />
<glyph unicode="H" horiz-adv-x="760" d="M580 0v316h-400v-316h-87v700h87v-303h400v303h87v-700h-87z" />
<glyph unicode="I" horiz-adv-x="273" d="M93 0v700h87v-700h-87z" />
<glyph unicode="J" horiz-adv-x="688" d="M603 280q2 -132 -77.5 -212.5t-211.5 -80.5q-128 0 -209 78.5t-81 210.5h86q0 -95 55.5 -151t148.5 -56t148 57.5t55 153.5v340h-245v80h331v-420z" />
<glyph unicode="K" horiz-adv-x="628" d="M93 0v700h86v-309l310 309h109v-5l-336 -332l366 -357v-6h-108l-341 329v-329h-86z" />
<glyph unicode="L" horiz-adv-x="579" d="M180 700v-619h381v-81h-468v700h87z" />
<glyph unicode="M" horiz-adv-x="884" d="M705 574l-254 -354h-18l-254 356v-576h-86v700h104l246 -360l244 360h104v-700h-86v574z" />
<glyph unicode="N" horiz-adv-x="762" d="M93 700h61l429 -536v536h86v-700h-60l-430 534v-534h-86v700z" />
<glyph unicode="O" horiz-adv-x="809" d="M406 712q168 -1 261.5 -108t92.5 -256q0 -70 -22.5 -134t-65 -115.5t-111.5 -82t-156 -30.5t-156.5 30.5t-112 82t-65 115t-22.5 134.5q0 156 97.5 260t259.5 104zM673 348q1 74 -27 136.5t-90.5 104.5t-149.5 43q-128 0 -199 -81.5t-71 -202.5q0 -116 70 -198t200 -82 q129 0 198 83t69 197z" />
<glyph unicode="P" horiz-adv-x="684" d="M179 226v-226h-86v700h318q66 0 118 -26t79 -68t39.5 -92.5t0 -101t-39.5 -92t-79 -68t-118 -26.5h-232zM411 307q49 0 85.5 23t52.5 58t16 75t-16 75t-52.5 58t-85.5 23h-232v-312h232z" />
<glyph unicode="Q" horiz-adv-x="813" d="M627 59v1q-87 -68 -220 -68q-172 0 -264.5 105.5t-92.5 257.5q1 96 39 175.5t120.5 131.5t197.5 52q87 0 156.5 -29.5t112 -80.5t65 -114.5t22.5 -134.5q0 -136 -75 -235l87 -84l-61 -61zM407 632q-84 -1 -146.5 -40.5t-93.5 -102t-30 -137.5q0 -115 70.5 -197t198.5 -82 t199 83.5t69 199.5t-69.5 196t-197.5 80z" />
<glyph unicode="R" horiz-adv-x="712" d="M568 0l-218 252h-170v-252h-87v700h318q112 0 174.5 -66t62.5 -158q1 -86 -49 -147.5t-152 -69.5l231 -259h-110zM407 330q75 0 114.5 40.5t39.5 103.5q1 58 -39 103t-111 45h-231v-292h227z" />
<glyph unicode="S" horiz-adv-x="664" d="M532 547q-27 44 -81 66.5t-116 23.5q-75 0 -129.5 -30.5t-54.5 -89.5q0 -27 14 -47t43 -33t58.5 -20.5t74.5 -14.5q52 -8 84 -15t73.5 -22.5t64.5 -35.5t39.5 -54.5t16.5 -80.5q0 -56 -25.5 -98t-68 -65t-90.5 -34t-101 -11q-100 0 -179 39.5t-117 122.5l72 42 q32 -59 94.5 -91t130.5 -32q35 0 67.5 6t63 20t49 40.5t18.5 63.5q0 31 -15.5 54t-46.5 37t-62.5 22t-77.5 15q-48 7 -80.5 14.5t-70.5 22t-61 34t-38.5 51t-15.5 72.5q-1 52 23.5 91.5t65 61.5t86 32.5t93.5 10.5q90 0 156 -27t109 -100z" />
<glyph unicode="T" horiz-adv-x="598" d="M256 622h-239v78h564v-78h-239v-622h-86v622z" />
<glyph unicode="U" horiz-adv-x="741" d="M655 700l1 -1v-420q0 -139 -81.5 -215.5t-202.5 -76.5q-120 0 -203.5 76t-83.5 216v420h86v-420q0 -100 58 -156t143 -56t141.5 57t56.5 156v420h85z" />
<glyph unicode="V" horiz-adv-x="714" d="M20 700h97l239 -598l241 598h96l-289 -702h-94z" />
<glyph unicode="W" horiz-adv-x="1080" d="M27 700h98l193 -579l194 579h56l196 -579l191 579h99l-245 -701h-87l-182 524l-181 -524h-88z" />
<glyph unicode="X" horiz-adv-x="636" d="M512 699h99v-3l-237 -339l251 -355v-2h-100l-207 294l-207 -294h-100v2l251 355l-237 339v3h101l192 -283z" />
<glyph unicode="Y" horiz-adv-x="680" d="M294 284l-271 413v3h106l210 -332l215 332h106v-3l-276 -413v-284h-90v284z" />
<glyph unicode="Z" horiz-adv-x="607" d="M51 700h517v-38l-415 -578h415v-84h-538v47l407 572h-386v81z" />
<glyph unicode="[" horiz-adv-x="330" d="M86 712h208v-75h-124v-733h124v-76h-208v884z" />
<glyph unicode="\" horiz-adv-x="491" d="M380 -82l-355 844h86l355 -844h-86z" />
<glyph unicode="]" horiz-adv-x="331" d="M245 -171h-208v76h124v733h-124v75h208v-884z" />
<glyph unicode="^" horiz-adv-x="609" d="M50 359l-1 5l223 337h62l226 -337l-1 -5h-89l-167 256l-167 -256h-86z" />
<glyph unicode="_" horiz-adv-x="606" d="M68 -16h470v-73h-470v73z" />
<glyph unicode="`" horiz-adv-x="235" d="M113 568l-100 129v3h100l75 -127v-5h-75z" />
<glyph unicode="a" horiz-adv-x="637" d="M483 0l-2 -2l-2 90q-28 -49 -78 -74.5t-104 -25.5q-109 0 -181 70.5t-72 188.5q0 117 72.5 186.5t181.5 68.5q57 0 107 -25.5t76 -72.5l1 90h80v-494h-79zM302 425l-1 -1q-75 0 -126 -49.5t-51 -130.5t51 -131t126 -50q49 0 87.5 20t58.5 52t29 70.5t0 77t-29 70.5 t-58 52t-87 20z" />
<glyph unicode="b" horiz-adv-x="637" d="M157 700v-296q25 48 77 73.5t108 25.5q110 0 180 -67.5t70 -188.5q0 -119 -70.5 -187.5t-180.5 -68.5q-57 0 -106.5 25t-77.5 74l-4 -90h-78v700h82zM336 426q-74 0 -124.5 -50t-50.5 -128q0 -80 50 -130t125 -50t124.5 48t49.5 131q0 84 -49.5 131.5t-124.5 47.5z" />
<glyph unicode="c" horiz-adv-x="516" d="M487 66l-1 1q-76 -76 -184 -76q-110 0 -184 68.5t-74 187.5q0 120 73 188t185 68q104 0 179 -74l-52 -54q-51 50 -125 50q-76 0 -126.5 -48.5t-50.5 -129.5q0 -83 50.5 -130.5t125.5 -47.5q78 0 129 52z" />
<glyph unicode="d" horiz-adv-x="636" d="M560 700l1 1v-700h-77l-4 90q-29 -49 -78.5 -74.5t-106.5 -25.5q-109 0 -179.5 68.5t-70.5 187.5q0 121 70 188.5t179 67.5q56 0 108 -25.5t77 -73.5v296h81zM300 427h1q-75 0 -124.5 -47.5t-49.5 -131.5q0 -83 49.5 -131t124.5 -48t125 50t50 130q0 78 -50.5 128 t-125.5 50z" />
<glyph unicode="e" horiz-adv-x="586" d="M518 79h-1q-36 -43 -94 -65.5t-119 -22.5q-116 0 -188 70.5t-72 187.5q0 112 72 184t184 72q120 0 190.5 -74.5t56.5 -215.5h-420q7 -67 57 -107.5t122 -40.5q44 0 88.5 16.5t68.5 45.5zM469 284v-1q-3 71 -48 109.5t-119 38.5q-67 0 -116 -39t-59 -108h342z" />
<glyph unicode="f" horiz-adv-x="382" d="M129 0l1 -1v417h-97v72h97v39q0 85 44 132t122 47q59 0 112 -36l-34 -61q-42 25 -76 25q-87 0 -87 -107v-39h155v-72h-155v-416h-82z" />
<glyph unicode="g" horiz-adv-x="611" d="M130 -83q0 -67 50.5 -101t124.5 -35q72 0 123 28.5t51 88.5q0 57 -49.5 88t-123.5 31q-118 0 -189.5 65t-71.5 179q0 115 78.5 180t182.5 65q87 0 140 -37l53 64l58 -46l-56 -66q64 -72 64 -160q0 -68 -35.5 -123.5t-103.5 -77.5q136 -40 136 -161q0 -91 -76 -142 t-182 -51q-114 0 -184.5 56.5t-68.5 154.5h79zM126 261q1 -82 52 -127t129 -45t128 49.5t50 121.5q0 81 -52.5 126t-126.5 45q-72 0 -126 -44.5t-54 -125.5z" />
<glyph unicode="h" horiz-adv-x="602" d="M156 700v-1v-287q56 86 171 88q101 0 154 -61.5t53 -166.5v-272h-81v271q0 73 -36.5 112.5t-103.5 39.5t-111.5 -46.5t-44.5 -114.5v-262h-82v700h81z" />
<glyph unicode="i" horiz-adv-x="232" d="M63 645q0 34 27 47.5t54 -0.5t27 -48t-27 -47.5t-54 0.5t-27 48zM75 496v-496h82v496h-82z" />
<glyph unicode="j" horiz-adv-x="232" d="M63 648q0 34 27 47.5t54 -0.5t27 -48t-27 -47.5t-54 0.5t-27 48zM76 495h-1v-560q0 -52 -13 -77.5t-55 -26.5q-33 0 -67 17l-27 -66q47 -28 98 -28q79 0 113 46t33 135v560h-81z" />
<glyph unicode="k" horiz-adv-x="496" d="M156 700v-414l203 208h102v-5l-228 -228l256 -255v-6h-100l-233 233v-233h-81v700h81z" />
<glyph unicode="l" horiz-adv-x="244" d="M163 700v-700h-82v700h82z" />
<glyph unicode="m" horiz-adv-x="920" d="M75 494l1 -1h76l5 -72q21 41 60.5 61t85.5 20q56 0 101 -26t65 -82q26 54 72 81t102 27q97 0 152.5 -59t55.5 -161v-282h-82v282q0 62 -34.5 102.5t-93.5 40.5q-60 0 -97.5 -41.5t-37.5 -103.5v-280h-82v280q0 62 -36.5 103.5t-96.5 41.5t-97 -41.5t-37 -103.5v-280h-82 v494z" />
<glyph unicode="n" horiz-adv-x="608" d="M75 494v1h75l4 -79q63 86 169 86q96 0 156.5 -61.5t60.5 -167.5v-273h-82v272q0 72 -40 113t-110 41q-67 -1 -109.5 -47t-42.5 -114v-265h-81v494z" />
<glyph unicode="o" horiz-adv-x="599" d="M43 246q0 114 72.5 186.5t183.5 72.5q113 0 185 -72t72 -187q0 -112 -72.5 -183.5t-184.5 -71.5q-111 0 -183.5 71.5t-72.5 183.5zM475 246q0 81 -50 132.5t-125 51.5q-76 0 -125.5 -51t-49.5 -133q0 -78 49 -128t125 -50t125.5 50t50.5 128z" />
<glyph unicode="p" horiz-adv-x="637" d="M75 -233v725h78l4 -95q29 49 80 76.5t110 27.5q108 -2 177 -72t69 -183q0 -116 -69.5 -186.5t-181.5 -70.5q-57 0 -108 25t-79 75v-322h-80zM337 66q76 0 125 48t49 130t-48.5 129.5t-125.5 47.5t-125 -50t-48 -127q0 -76 49 -126.5t124 -51.5z" />
<glyph unicode="q" horiz-adv-x="636" d="M480 -233h2v322q-28 -49 -79 -74t-108 -25q-112 0 -181.5 70.5t-69.5 187.5q0 113 69 183t177 72q59 0 110 -27.5t80 -76.5l3 95h78v-727h-81zM302 69l1 1q74 0 123 50.5t49 126.5q0 77 -48 127t-125 50t-125.5 -47.5t-48.5 -129.5t49 -130t125 -48z" />
<glyph unicode="r" horiz-adv-x="428" d="M151 494l1 1l6 -74q44 82 152 82q65 2 115 -37l-37 -70q-39 27 -86 27q-61 -1 -103 -41.5t-42 -106.5v-275h-82v494h76z" />
<glyph unicode="s" horiz-adv-x="499" d="M393 385l-1 -1q-53 48 -139 48q-54 1 -88.5 -18t-33.5 -54q1 -59 123 -73q35 -4 57.5 -8t54.5 -14.5t50.5 -25.5t32.5 -41.5t13 -61.5q-1 -71 -60 -109.5t-147 -38.5q-147 0 -221 93l47 57q62 -76 176 -76q49 0 86.5 18t38.5 59q1 37 -33.5 54t-99.5 25q-42 5 -72 13 t-61 23t-47.5 41.5t-16.5 64.5q0 50 31 84t74.5 48t94.5 13q115 0 188 -66z" />
<glyph unicode="t" horiz-adv-x="397" d="M214 638v-145h153v-70h-154v-261q0 -95 78 -95q33 0 69 18l24 -68q-50 -23 -96 -24q-156 -3 -156 169v261h-99v70h99v136z" />
<glyph unicode="u" horiz-adv-x="609" d="M458 0h1l-4 79q-63 -85 -172 -87q-96 0 -155.5 61.5t-59.5 167.5v273h82v-272q0 -72 40 -113t110 -41q67 1 109.5 47t42.5 114v265h82v-494h-76z" />
<glyph unicode="v" horiz-adv-x="561" d="M27 494h90l80 -193l84 -214l83 213l80 194h90l-208 -495h-90z" />
<glyph unicode="w" horiz-adv-x="839" d="M31 494h91l133 -407l131 407h67l131 -407l133 407h90l-173 -495h-94l-67 184l-53 180l-54 -180l-67 -184h-93z" />
<glyph unicode="x" horiz-adv-x="495" d="M16 2l178 251l-166 238v3h91l128 -187l126 187h94v-3l-168 -238l181 -251v-2h-94l-139 200l-140 -200h-91v2z" />
<glyph unicode="y" horiz-adv-x="551" d="M526 494l-312 -727h-88l103 240l-199 487h93l97 -257l54 -141l53 140l109 258h90z" />
<glyph unicode="z" horiz-adv-x="471" d="M48 494h383v-37l-278 -378h278v-79h-400v32l280 387h-263v75z" />
<glyph unicode="{" horiz-adv-x="330" d="M293 -136l-1 -1q-99 -16 -140 20.5t-41 128.5v144q0 102 -75 102v63q75 0 75 102v138q0 92 42.5 129.5t138.5 19.5v-61q-57 11 -78 -9t-21 -82v-135q0 -29 -1 -43.5t-7 -36t-21.5 -34t-40.5 -19.5q26 -7 41.5 -20t21.5 -34.5t7 -35.5t1 -43v-141q0 -61 19.5 -79t79.5 -10 v-63z" />
<glyph unicode="|" horiz-adv-x="253" d="M167 726v-829h-81v829h81z" />
<glyph unicode="}" horiz-adv-x="329" d="M37 -77v-2q60 -9 80 9t20 79v141q0 29 1 43.5t7 36t21.5 34.5t40.5 20q-21 6 -35 17t-21 21.5t-10.5 30t-4 30.5t-0.5 35v134q0 62 -21 82t-78 9v62q96 18 138.5 -20t42.5 -130v-137q0 -102 75 -102v-62q-75 0 -75 -102v-144q0 -92 -41 -128.5t-140 -20.5v64z" />
<glyph unicode="~" horiz-adv-x="636" d="M506 361l62 -24q-25 -71 -74 -97t-121 3l-129 63q-23 7 -43 9t-39.5 -14.5t-33.5 -52.5l-57 24q23 68 78.5 98t117.5 0l127 -62q75 -38 112 53z" />
<glyph unicode="&#xa1;" horiz-adv-x="246" d="M179 432q0 -36 -29 -50.5t-58 0.5t-29 51t29 50.5t58 -0.5t29 -51zM167 -215v539h-88v-539h88z" />
<glyph unicode="&#xa2;" horiz-adv-x="549" d="M272 -16h-1q-96 14 -156.5 81.5t-60.5 170.5q0 99 60.5 168t157.5 84v65h77v-65q84 -12 146 -73l-51 -52q-55 53 -131 53q-75 0 -126 -49t-51 -131q0 -83 50.5 -131.5t126.5 -48.5q71 0 130 57l52 -59q-62 -60 -146 -71v-71h-77v72z" />
<glyph unicode="&#xa3;" horiz-adv-x="652" d="M58 81l2 -1q61 46 80 95.5t11 111.5h-92v74h76q-23 90 -23 132q0 103 68 159t178 56q103 0 166.5 -46.5t65.5 -147.5h-78q-4 118 -154 118q-76 0 -119.5 -37t-43.5 -100q0 -36 20 -132h240v-74h-224q20 -138 -74 -212h438v-77h-537v81z" />
<glyph unicode="&#xa4;" horiz-adv-x="605" d="M302 183q63 0 99.5 41t36.5 97q0 57 -36.5 98.5t-99.5 41.5t-100 -41.5t-37 -98.5q0 -56 37 -97t100 -41zM190 146l-59 -59l-60 60l59 58q-35 53 -34.5 116t35.5 115l-60 59l60 61l59 -60q49 30 113 30q62 0 111 -30l60 60l60 -61l-58 -58q34 -52 33.5 -116.5 t-34.5 -115.5l59 -58l-60 -60l-60 59q-47 -29 -112 -29q-62 0 -112 29z" />
<glyph unicode="&#xa5;" horiz-adv-x="697" d="M147 210h156v57h-156v67h122l-239 363v3h100l216 -341l222 341h99v-3l-243 -363h123v-67h-159v-57h159v-66h-159v-144h-85v144h-156v66z" />
<glyph unicode="&#xa6;" horiz-adv-x="260" d="M87 342v366h86v-366h-86zM173 276v-365h-86v365h86z" />
<glyph unicode="&#xa7;" horiz-adv-x="576" d="M446 595h-2q-57 46 -150 46q-58 1 -99 -18.5t-40 -53.5q0 -59 137 -73q35 -3 63 -7t61 -14.5t54.5 -25.5t35 -40.5t11.5 -58.5q-2 -40 -28 -67.5t-67 -37.5q45 -13 70.5 -43t23.5 -71q-1 -41 -24 -71.5t-59 -46.5t-72.5 -23.5t-73.5 -7.5q-72 0 -134 24.5t-97 72.5l55 55 q64 -78 178 -76q54 0 97 19t45 57q1 35 -37 50t-107 21q-43 3 -80 11.5t-70 24.5t-51.5 43.5t-18.5 63.5q0 33 24.5 64.5t66.5 45.5q-43 12 -66 41t-22 69q1 52 38 86.5t85.5 47.5t103.5 12q133 0 202 -72zM432 350v-1q0 28 -29 48.5t-70.5 26t-83.5 2t-71 -24.5t-29 -53 q0 -28 29 -47t70.5 -24t83.5 -0.5t71 24t29 49.5z" />
<glyph unicode="&#xa8;" horiz-adv-x="480" d="M57 667q0 33 26.5 47t53.5 0.5t27 -46.5t-26.5 -46.5t-53.5 -0.5t-27 46zM287 667q0 25 16.5 39.5t37 14.5t37 -14.5t16.5 -39.5q0 -33 -27 -46.5t-53.5 0t-26.5 46.5z" />
<glyph unicode="&#xa9;" horiz-adv-x="832" d="M418 716v-1q167 0 264 -104.5t97 -259.5t-97 -260t-264 -105q-168 0 -266.5 105t-98.5 260t98.5 260t266.5 105zM129 350q0 -128 78 -213t211 -85q132 0 208.5 84.5t76.5 213.5t-76.5 213.5t-208.5 84.5q-133 0 -211 -85t-78 -213zM572 486l-3 4q-59 59 -140 59 q-85 0 -142 -54.5t-57 -141.5q0 -86 57 -140t143 -54q82 0 141 59l-48 48q-40 -40 -92 -40q-54 0 -91.5 35t-37.5 90q0 56 37.5 91.5t92.5 35.5q53 0 91 -38z" />
<glyph unicode="&#xaa;" horiz-adv-x="503" d="M354 377l-1 -1l-1 56q-18 -30 -50 -46t-67 -17q-72 0 -119 45.5t-47 124.5q0 78 47.5 123t120.5 45q35 0 67 -16t50 -44v54h65v-324h-65zM241 642l2 -1q-44 0 -73 -28.5t-29 -74.5t29 -75t72 -29q38 0 64.5 21.5t32.5 52t0 61t-32.5 52t-65.5 21.5zM83 315h343v-65h-343 v65z" />
<glyph unicode="&#xab;" horiz-adv-x="447" d="M182 517h88l-137 -220l137 -221h-88l-138 221zM175 297l138 220h88l-137 -220l137 -221h-88z" />
<glyph unicode="&#xac;" horiz-adv-x="519" d="M441 164h-75v132h-293v75h368v-207z" />
<glyph unicode="&#xad;" horiz-adv-x="484" d="M48 326h358v-78h-358v78z" />
<glyph unicode="&#xae;" horiz-adv-x="828" d="M414 714q168 0 264.5 -104.5t96.5 -260.5q0 -155 -96.5 -260t-264.5 -105q-167 0 -264 105t-97 260q0 156 97 260.5t264 104.5zM129 349v2q0 -129 76.5 -213.5t208.5 -84.5t209 84.5t77 212.5q0 129 -76.5 213.5t-209.5 84.5t-209 -84.5t-76 -214.5zM483 306v-1 q51 9 77 47.5t21.5 80.5t-40 75.5t-93.5 33.5h-172v-375h69v130h65l104 -130h76v14zM345 477h103q24 0 40.5 -12.5t20 -30.5t-0.5 -35.5t-20.5 -30t-41.5 -12.5h-101v121z" />
<glyph unicode="&#xaf;" horiz-adv-x="421" d="M35 702h334v-71h-334v71z" />
<glyph unicode="&#xb0;" horiz-adv-x="331" d="M166 670q-37 0 -53 -29t-1 -58.5t54 -29.5q37 0 52 29.5t-0.5 58.5t-51.5 29zM167 721q42 0 71 -22.5t36 -54.5t0.5 -64t-35.5 -54.5t-71 -22.5q-45 0 -75 22.5t-36.5 54.5t1 64t37 54.5t72.5 22.5z" />
<glyph unicode="&#xb1;" horiz-adv-x="530" d="M71 410h154v157h80v-157h154v-76h-154v-158h-80v158h-154v76zM75 110h381v-76h-381v76z" />
<glyph unicode="&#xb2;" horiz-adv-x="364" d="M44 671l1 -1q0 57 40.5 83.5t97.5 26.5q62 0 102 -26.5t40 -85.5q0 -27 -9.5 -47.5t-22.5 -32t-34 -18.5t-35.5 -9.5t-35.5 -4.5q-79 -7 -79 -57v-21h211v-65h-278v87q0 53 36.5 79t92.5 31q87 7 87 59q0 54 -75 54q-73 0 -74 -52h-65z" />
<glyph unicode="&#xb3;" horiz-adv-x="364" d="M103 519h-2q5 -50 77 -50q79 0 79 53q0 20 -18.5 36t-57.5 16h-56v54h52q74 0 75 48q0 18 -18.5 33.5t-55.5 15.5q-73 0 -78 -52h-59q0 54 40 80.5t96 26.5q57 0 98 -27t41 -78q0 -27 -14 -48t-39 -28q29 -8 45.5 -30.5t16.5 -46.5q0 -60 -43.5 -87t-104.5 -27 q-59 0 -100 27t-42 84h68z" />
<glyph unicode="&#xb4;" horiz-adv-x="231" d="M20 568v5l74 127h101v-3l-100 -129h-75z" />
<glyph unicode="&#xb5;" horiz-adv-x="613" d="M525 0h-72l-7 61q-21 -40 -66.5 -62t-91.5 -20q-50 0 -93 19t-60 62v-282h-76v716h81v-291q0 -69 46 -110t106 -42q61 0 106.5 42.5t45.5 122.5v278h81v-494z" />
<glyph unicode="&#xb6;" horiz-adv-x="811" d="M356 621v-837h-82v401q-115 5 -178.5 80.5t-62.5 175.5q1 105 69.5 181.5t188.5 76.5h485v-78h-100v-836h-80v836h-240z" />
<glyph unicode="&#xb7;" horiz-adv-x="250" d="M69 283q0 35 28 49.5t56 0t28 -49.5t-28 -49.5t-56 0t-28 49.5z" />
<glyph unicode="&#xb8;" horiz-adv-x="335" d="M89 -68l-3 -1l26 91h61l-14 -55q60 1 84 -32t15 -75q-9 -40 -43 -61t-76 -20q-79 2 -113 59l39 35q26 -37 74 -35q46 0 56 34q9 29 -19.5 45.5t-69.5 1.5z" />
<glyph unicode="&#xb9;" horiz-adv-x="255" d="M37 470h63v230l-54 -14v58l120 29v-303h64v-57h-193v57z" />
<glyph unicode="&#xba;" horiz-adv-x="482" d="M241 368q-74 0 -122.5 45.5t-48.5 124.5t48 123.5t122 44.5t122 -44.5t48 -122.5q0 -79 -48.5 -125t-120.5 -46zM241 434q45 0 73 28.5t28 75.5t-29.5 76.5t-72.5 29.5t-71.5 -29.5t-28.5 -75.5q0 -47 27.5 -76t73.5 -29zM80 308h325v-65h-325v65z" />
<glyph unicode="&#xbb;" horiz-adv-x="447" d="M134 78h-87l136 220l-136 220h87l138 -220zM403 298l-138 -220h-87l136 220l-136 220h87z" />
<glyph unicode="&#xbc;" horiz-adv-x="747" d="M139 -2l377 707h78l-379 -707h-76zM48 399h63v229l-54 -13v58l120 29v-303h64v-57h-193v57zM669 361v-229h43v-59h-43v-72h-64v72h-192l-4 54l173 234h87zM605 132v166l-124 -166h124z" />
<glyph unicode="&#xbd;" horiz-adv-x="796" d="M137 -2l378 707h78l-379 -707h-77zM48 399h62v230l-54 -13v58l121 29v-304h64v-57h-193v57zM473 256h1q0 57 40.5 83.5t97.5 26.5q62 0 102 -26t40 -85q0 -28 -10 -48.5t-22.5 -31t-35 -18t-35 -9.5t-35.5 -5q-77 -7 -77 -57v-26h208v-61h-275v87q0 51 35 77t87 30 q45 4 69 17t24 44q0 54 -76 54q-73 0 -73 -52h-65z" />
<glyph unicode="&#xbe;" horiz-adv-x="781" d="M129 511l-2 1v53h51q73 0 73 47q0 17 -18.5 32.5t-54.5 15.5q-71 0 -75 -51h-58q0 52 39.5 78t94.5 26t95 -26.5t41 -75.5q0 -27 -14 -47t-38 -27q28 -7 44 -29t16 -46q0 -59 -42 -85.5t-102 -26.5q-56 0 -96 26.5t-41 81.5h65q5 -49 75 -49q77 0 77 52q0 19 -18.5 34.5 t-56.5 15.5h-55zM186 -2l378 708h78l-380 -708h-76zM704 362v-229h42v-59h-42v-72h-64v72h-192l-4 54l173 234h87zM640 133v166l-124 -166h124z" />
<glyph unicode="&#xbf;" horiz-adv-x="602" d="M383 450q0 -36 -28.5 -50.5t-57 0t-28.5 50.5t28.5 50.5t57 0t28.5 -50.5zM572 4l-1 -1q0 -71 -40 -120t-98 -69t-129 -19q-54 0 -100 10.5t-85 33.5t-61.5 64.5t-22.5 97.5q0 19 3.5 36.5t7.5 30.5t13.5 26.5t15.5 22t20 19.5t20 15.5t23 13.5t21 11t22 10t19 9 q52 19 67.5 45.5t15.5 95.5h87q0 -98 -30.5 -142t-104.5 -70q-26 -11 -41 -18.5t-33.5 -22t-27 -34.5t-8.5 -48q0 -127 180 -127q43 0 81 11.5t67 42t30 76.5h89z" />
<glyph unicode="&#xc0;" horiz-adv-x="760" d="M242 901v3h101l74 -127v-5h-75zM331 700h98l314 -700h-94l-69 154h-400l-68 -154h-95zM546 234l-166 378l-166 -378h332z" />
<glyph unicode="&#xc1;" horiz-adv-x="760" d="M337 776l75 128h100v-3l-100 -130h-75v5zM331 700h98l314 -700h-94l-69 154h-400l-68 -154h-95zM546 234l-166 378l-166 -378h332z" />
<glyph unicode="&#xc2;" horiz-adv-x="760" d="M353 896h52l145 -135v-7h-85l-86 80l-86 -80h-85v7zM331 700h98l314 -700h-94l-69 154h-400l-68 -154h-95zM546 234l-166 378l-166 -378h332z" />
<glyph unicode="&#xc3;" horiz-adv-x="760" d="M229 800l1 1q11 45 45 65.5t76 5.5q6 -2 28 -13.5t27 -12.5q42 -15 58 27l55 -23q-12 -50 -47 -69t-73 -4q-6 2 -29 14.5t-27 13.5q-42 17 -60 -30zM331 700h98l314 -700h-94l-69 154h-400l-68 -154h-95zM546 234l-166 378l-166 -378h332z" />
<glyph unicode="&#xc4;" horiz-adv-x="760" d="M318 816q0 -33 -27 -46t-53.5 0.5t-26.5 46.5t26.5 46.5t53.5 0t27 -47.5zM548 816q0 -33 -27 -46.5t-53.5 0t-26.5 46.5q0 25 16.5 39.5t37 14.5t37 -14.5t16.5 -39.5zM331 700h98l314 -700h-94l-69 154h-400l-68 -154h-95zM546 234l-166 378l-166 -378h332z" />
<glyph unicode="&#xc5;" horiz-adv-x="760" d="M329 694q-66 25 -66 98q0 51 35 79.5t83 28.5q47 0 82.5 -28.5t35.5 -79.5q0 -74 -68 -98l312 -694h-92l-70 154h-402l-68 -154h-94zM379 848h2q-37 0 -52 -28t0 -55.5t51 -27.5q38 0 53.5 27.5t-0.5 55.5t-54 28zM547 237l-165 387l-165 -387h330z" />
<glyph unicode="&#xc6;" horiz-adv-x="921" d="M417 700h441v-83h-332v-225h316v-82h-316v-225h341v-85h-424v200h-237l-121 -200h-102zM443 279v255l1 70l-189 -325h188z" />
<glyph unicode="&#xc7;" horiz-adv-x="710" d="M414 -61l2 2q60 1 84 -32t15 -75q-9 -40 -42.5 -61.5t-75.5 -21.5q-35 0 -67 15.5t-49 44.5l40 35q26 -38 74 -36q45 2 55 34q9 29 -20 45.5t-71 1.5l-16 13l25 88q-103 10 -176.5 62t-107 127t-34.5 165q-1 96 38 177t124 134.5t203 53.5q149 0 256 -105l-60 -56 q-79 78 -196 78q-134 0 -206.5 -82t-71.5 -199q2 -116 73 -195.5t205 -79.5q118 0 199 81l61 -60q-100 -100 -248 -105z" />
<glyph unicode="&#xc8;" horiz-adv-x="651" d="M226 909v2h101l74 -127v-5h-75zM93 0v700h492v-80h-406v-219h389v-81h-389v-237h422v-83h-508z" />
<glyph unicode="&#xc9;" horiz-adv-x="651" d="M289 774l75 127h101v-3l-101 -129h-75v5zM93 0v700h492v-80h-406v-219h389v-81h-389v-237h422v-83h-508z" />
<glyph unicode="&#xca;" horiz-adv-x="651" d="M324 911h52l145 -134v-7h-85l-86 79l-85 -79h-85v7zM93 0v700h492v-80h-406v-219h389v-81h-389v-237h422v-83h-508z" />
<glyph unicode="&#xcb;" horiz-adv-x="651" d="M183 827q0 33 26.5 47t53.5 0.5t27 -46.5t-27 -46.5t-53.5 -0.5t-26.5 46zM413 827q0 25 16.5 39.5t37 14.5t37 -14.5t16.5 -39.5q0 -33 -27 -46.5t-53.5 0t-26.5 46.5zM93 0v700h492v-80h-406v-219h389v-81h-389v-237h422v-83h-508z" />
<glyph unicode="&#xcc;" horiz-adv-x="274" d="M181 777v-5h-76l-100 129v3h101zM93 0v700h88v-700h-88z" />
<glyph unicode="&#xcd;" horiz-adv-x="274" d="M95 776l75 127h101v-3l-101 -129h-75v5zM181 0v700h-88v-700h88z" />
<glyph unicode="&#xce;" horiz-adv-x="274" d="M111 900h50l137 -134v-7h-82l-80 79l-79 -79h-83v7zM93 700h88v-700h-88v700z" />
<glyph unicode="&#xcf;" horiz-adv-x="274" d="M-10 818q0 25 16.5 39.5t37 14.5t37 -14.5t16.5 -39.5q0 -33 -26.5 -46.5t-53.5 0t-27 46.5zM175 817q0 33 26.5 47t53.5 0.5t27 -46.5t-26.5 -46.5t-53.5 -0.5t-27 46zM181 -1v700h-88v-700h88z" />
<glyph unicode="&#xd0;" horiz-adv-x="754" d="M30 384h69v316h246q169 0 263 -98.5t96 -240.5q1 -71 -21 -134.5t-64.5 -115t-113.5 -81.5t-160 -30h-246v306h-69v78zM345 83q132 0 202 79.5t69 196.5q-2 113 -72 186t-199 73h-159v-234h150v-78h-150v-223h159z" />
<glyph unicode="&#xd1;" horiz-adv-x="762" d="M253 801h-3q11 45 45 65.5t76 5.5q5 -1 27.5 -12.5t27.5 -12.5q42 -15 57 27l55 -24q-11 -49 -45.5 -67.5t-71.5 -3.5q-6 2 -28.5 14t-27.5 13q-42 17 -59 -29zM93 700h61l427 -530v530h88v-700h-60l-426 527v-527h-90v700z" />
<glyph unicode="&#xd2;" horiz-adv-x="809" d="M281 911v3h101l74 -127v-5h-75zM406 712q168 -1 261.5 -108t92.5 -256q0 -70 -22.5 -134t-65 -115.5t-111.5 -82t-156 -30.5t-156.5 30.5t-112 82t-65 115t-22.5 134.5q0 156 97.5 260t259.5 104zM673 347l1 1q1 74 -27 136.5t-90.5 104.5t-149.5 43q-128 0 -200 -82 t-70 -202q2 -115 71 -197t198 -82t198 82t69 196z" />
<glyph unicode="&#xd3;" horiz-adv-x="810" d="M364 784l74 128h101v-3l-100 -130h-75v5zM406 712q-162 0 -259.5 -104t-97.5 -260q0 -71 22.5 -135t65 -115.5t112 -82t156.5 -30.5t156 30.5t111.5 82t65 115.5t23.5 134q1 150 -92.5 257t-262.5 108zM137 347l-1 -1q-2 120 70 202t200 82q129 -1 198.5 -84t68.5 -199 q-1 -115 -70 -197t-198 -82t-198 82t-70 197z" />
<glyph unicode="&#xd4;" horiz-adv-x="809" d="M388 919h52l145 -135v-6h-85l-86 79l-86 -79h-85v6zM49 348q0 156 97.5 260t259.5 104q168 -1 261.5 -108t92.5 -256q0 -70 -22.5 -134t-65 -115.5t-111.5 -82t-156 -30.5t-156.5 30.5t-112 82t-65 115t-22.5 134.5zM673 347l1 1q1 74 -27 136.5t-90.5 104.5t-149.5 43 q-128 0 -200 -82t-70 -202q2 -115 71 -197t198 -82t198 82t69 196z" />
<glyph unicode="&#xd5;" horiz-adv-x="809" d="M268 812h-2q11 45 44.5 65.5t75.5 5.5q5 -1 27.5 -12.5t27.5 -12.5q42 -15 57 28l55 -24q-11 -49 -45.5 -67.5t-71.5 -3.5q-6 1 -28.5 13.5t-28.5 13.5q-42 15 -58 -30zM49 348q0 156 97.5 260t259.5 104q168 -1 261.5 -108t92.5 -256q0 -70 -22.5 -134t-65 -115.5 t-111.5 -82t-156 -30.5t-156.5 30.5t-112 82t-65 115t-22.5 134.5zM673 347l1 1q1 74 -27 136.5t-90.5 104.5t-149.5 43q-128 0 -200 -82t-70 -202q2 -115 71 -197t198 -82t198 82t69 196z" />
<glyph unicode="&#xd6;" horiz-adv-x="810" d="M247 829q0 25 16.5 39.5t37 14.5t37 -14.5t16.5 -39.5q0 -33 -27 -46.5t-53.5 0t-26.5 46.5zM475 828q0 34 26.5 47.5t53.5 0t27 -46.5t-27 -46.5t-53.5 -0.5t-26.5 46zM406 711q-162 0 -259.5 -104t-97.5 -260q0 -71 22.5 -135t65 -115.5t112 -82t156.5 -30.5t156 30.5 t111.5 82t65 115.5t23.5 134q1 150 -92.5 257t-262.5 108zM137 346l-1 -1q-2 120 70 202t200 82q129 -1 198.5 -84t68.5 -199q-1 -115 -70 -197t-198 -82t-198 82t-70 197z" />
<glyph unicode="&#xd7;" horiz-adv-x="460" d="M119 484l110 -111l111 111l53 -52l-113 -114l115 -114l-52 -50l-113 114l-113 -114l-54 53l114 114l-112 111z" />
<glyph unicode="&#xd8;" horiz-adv-x="810" d="M193 49v1q-70 49 -106.5 128.5t-36.5 170.5q0 71 22.5 135.5t65.5 116t112 82t156 30.5q85 0 155 -32l47 82h88l-71 -119q66 -50 101 -128.5t35 -167.5q0 -70 -22.5 -134t-65 -115.5t-111.5 -82t-156 -30.5q-81 0 -148 27l-52 -89h-86zM518 610q-50 22 -111 22 q-131 0 -201 -83.5t-68 -200.5q0 -66 25.5 -125t73.5 -97zM301 87q48 -17 106 -17q129 0 198 82t69 196q0 142 -92 222z" />
<glyph unicode="&#xd9;" horiz-adv-x="741" d="M254 906v3h101l74 -127v-5h-75zM655 700l1 -1v-420q0 -139 -81.5 -215.5t-202.5 -76.5q-120 0 -203.5 76t-83.5 216v420h88v-420q0 -100 57 -155t142 -55q84 0 139.5 56t55.5 155v420h88z" />
<glyph unicode="&#xda;" horiz-adv-x="742" d="M323 782l74 127h101v-3l-100 -129h-75v5zM569 700l-2 -1v-420q0 -99 -55.5 -154.5t-139.5 -55.5q-85 0 -142 55t-57 156v420h-88v-420q0 -94 41.5 -162t105.5 -99t141 -31q121 0 202.5 76.5t81.5 215.5v420h-88z" />
<glyph unicode="&#xdb;" horiz-adv-x="740" d="M345 913h53l144 -134v-7h-85l-86 79l-85 -79h-85v7zM655 280l1 -1q0 -139 -81.5 -215.5t-202.5 -76.5q-120 0 -203.5 76t-83.5 216v420h88v-420q0 -100 57 -155t142 -55q84 0 139.5 56t55.5 155v420h88v-420z" />
<glyph unicode="&#xdc;" horiz-adv-x="742" d="M209 826q0 25 16.5 39.5t37 14.5t37 -14.5t16.5 -39.5q0 -33 -27 -46.5t-53.5 0t-26.5 46.5zM438 825q0 33 27 47t53.5 0.5t26.5 -46.5t-26.5 -46.5t-53.5 -0.5t-27 46zM569 698l-2 -1v-419q0 -99 -55.5 -154.5t-139.5 -55.5q-85 0 -142 55t-57 156v419h-88v-419 q0 -94 41.5 -162t105.5 -99t141 -31q121 0 202.5 76.5t81.5 215.5v419h-88z" />
<glyph unicode="&#xdd;" horiz-adv-x="680" d="M289 779l75 127h100v-2l-100 -130h-75v5zM384 0v284l276 413v3h-106l-215 -332l-210 332h-106v-3l271 -413v-284h90z" />
<glyph unicode="&#xde;" horiz-adv-x="684" d="M93 0h1v699h86v-118h231q52 0 95 -16t71 -42.5t48 -61.5t24 -73t-0.5 -76.5t-24 -73.5t-47.5 -61.5t-71.5 -42.5t-95.5 -16h-230v-118h-87zM411 198q42 0 75 16.5t50 43t25 58.5t0 64.5t-25 59t-50 43t-75 16.5h-230v-301h230z" />
<glyph unicode="&#xdf;" horiz-adv-x="611" d="M75 516v1q0 94 64.5 144.5t156.5 50.5q96 0 160 -47.5t64 -139.5q0 -49 -29.5 -86.5t-79.5 -49.5q80 -18 118.5 -70t38.5 -120q0 -57 -20 -99.5t-54 -67t-78 -35.5t-92.5 -7.5t-97.5 19.5v75q108 -40 183 -6.5t75 117.5q0 80 -54.5 116t-133.5 36h-68v76h64 q35 0 64.5 7.5t54.5 31t25 61.5q1 61 -40 86.5t-98 25.5q-67 0 -101.5 -31.5t-36.5 -87.5l1 -516h-86v516z" />
<glyph unicode="&#xe0;" horiz-adv-x="637" d="M191 706v2h101l75 -127v-5h-75zM483 0l-2 -2l-2 90q-28 -49 -78 -74.5t-104 -25.5q-109 0 -181 70.5t-72 188.5q0 117 72.5 186.5t181.5 68.5q57 0 107 -25.5t76 -72.5l1 90h80v-494h-79zM302 425l-1 -1q-75 0 -126 -49.5t-51 -130.5t51 -131t126 -50q49 0 87.5 20 t58.5 52t29 70.5t0 77t-29 70.5t-58 52t-87 20z" />
<glyph unicode="&#xe1;" horiz-adv-x="636" d="M250 581l75 127h100v-3l-100 -129h-75v5zM561 0v2v494h-80l-1 -90q-26 47 -75.5 72.5t-106.5 25.5q-109 0 -181.5 -69.5t-72.5 -186.5q0 -118 72 -188.5t181 -69.5q55 0 105 25.5t78 74.5l2 -90h79zM303 429l-1 1q49 0 87.5 -20t58.5 -52t29 -70.5t0 -77t-29 -70.5 t-58 -52t-87 -20q-75 0 -126 50t-51 131t51 130.5t126 49.5z" />
<glyph unicode="&#xe2;" horiz-adv-x="637" d="M147 573l145 135h52l145 -135v-7h-85l-86 80l-86 -80h-85v7zM483 0l-2 -2l-2 90q-28 -49 -78 -74.5t-104 -25.5q-109 0 -181 70.5t-72 188.5q0 117 72.5 186.5t181.5 68.5q57 0 107 -25.5t76 -72.5l1 90h80v-494h-79zM302 425l-1 -1q-75 0 -126 -49.5t-51 -130.5t51 -131 t126 -50q49 0 87.5 20t58.5 52t29 70.5t0 77t-29 70.5t-58 52t-87 20z" />
<glyph unicode="&#xe3;" horiz-adv-x="637" d="M176 630v-2q11 45 44.5 65.5t75.5 5.5q5 -1 27.5 -12.5t27.5 -12.5q42 -15 57 28l54 -23q-11 -49 -45.5 -67.5t-72.5 -3.5q-6 2 -29 14.5t-28 13.5q-42 15 -58 -30zM483 -2l-2 -2l-2 90q-28 -49 -78 -74.5t-104 -25.5q-109 0 -181 70.5t-72 188.5q0 117 72.5 186.5 t181.5 68.5q57 0 107 -25.5t76 -72.5l1 90h80v-494h-79zM302 423l-1 -1q-75 0 -126 -49.5t-51 -130.5t51 -131t126 -50q49 0 87.5 20t58.5 52t29 70.5t0 77t-29 70.5t-58 52t-87 20z" />
<glyph unicode="&#xe4;" horiz-adv-x="636" d="M156 662q0 25 16.5 39.5t37 14.5t37 -14.5t16.5 -39.5q0 -33 -26.5 -46.5t-53.5 0t-27 46.5zM386 661q0 33 27 47t53.5 0.5t26.5 -46.5t-26.5 -46.5t-53.5 -0.5t-27 46zM561 -1v1v493h-80l-1 -89q-26 47 -75.5 72.5t-106.5 25.5q-109 0 -181.5 -69.5t-72.5 -185.5 q0 -118 72 -188.5t181 -69.5q55 0 105 25.5t78 74.5l2 -90h79zM303 427h-1q49 0 87.5 -20t58.5 -52t29 -70.5t0 -77t-29 -70.5t-58 -52t-87 -20q-75 0 -126 50.5t-51 131.5t51 130.5t126 49.5z" />
<glyph unicode="&#xe5;" horiz-adv-x="637" d="M200 662h-1q0 48 34 75.5t81 27.5t82 -27t35 -76t-34 -76.5t-83 -27.5t-81.5 27.5t-32.5 76.5zM312 715h1q-36 0 -50.5 -26.5t0 -52.5t50.5 -26q38 0 53 26t-1 52.5t-53 26.5zM483 0l-2 -2l-2 90q-28 -49 -78 -74.5t-104 -25.5q-109 0 -181 70.5t-72 188.5 q0 117 72.5 186.5t181.5 68.5q57 0 107 -25.5t76 -72.5l1 90h80v-494h-79zM302 425l-1 -1q-75 0 -126 -49.5t-51 -130.5t51 -131t126 -50q49 0 87.5 20t58.5 52t29 70.5t0 77t-29 70.5t-58 52t-87 20z" />
<glyph unicode="&#xe6;" horiz-adv-x="1013" d="M480 0l1 -3v90q-28 -49 -78.5 -74.5t-105.5 -25.5q-109 0 -181 70.5t-72 188.5q0 117 72.5 186.5t180.5 68.5q58 0 108.5 -25.5t76.5 -72.5l1 90h64v-85q65 97 188 95q52 0 99 -19t82 -54.5t51 -91.5t6 -124h-419q7 -67 56.5 -107.5t121.5 -40.5q44 0 88.5 16.5 t68.5 45.5l54 -50q-36 -43 -94 -65.5t-119 -22.5q-127 0 -185 94l-2 -84h-63zM896 281l-1 -1q-3 71 -48 109.5t-118 38.5q-67 0 -115.5 -39t-58.5 -108h341zM302 423v-1q-75 0 -126 -49.5t-51 -130.5t51 -131t126 -50q50 0 89 20t59 52t29.5 70.5t0 77t-29.5 70.5t-59 52 t-89 20z" />
<glyph unicode="&#xe7;" horiz-adv-x="518" d="M488 66v1q-74 -74 -180 -76l-12 -43q60 1 83.5 -31.5t14.5 -74.5q-9 -38 -41 -58.5t-73 -21.5q-36 -1 -68.5 14t-49.5 44l39 35q25 -35 73 -35q46 0 55 32q9 29 -19.5 45.5t-69.5 1.5l-17 13l24 84q-90 16 -146 81.5t-56 169.5q0 120 73 188t185 68q104 0 179 -74 l-52 -54q-51 50 -125 50q-76 0 -126.5 -48.5t-50.5 -129.5q0 -83 50.5 -130.5t125.5 -47.5q78 0 129 52z" />
<glyph unicode="&#xe8;" horiz-adv-x="586" d="M188 704v2h101l74 -127v-5h-75zM518 79h-1q-36 -43 -94 -65.5t-119 -22.5q-116 0 -188 70.5t-72 187.5q0 112 72 184t184 72q120 0 190.5 -74.5t56.5 -215.5h-418q7 -67 56 -107.5t121 -40.5q44 0 88.5 16.5t68.5 45.5zM469 284v-1q-3 71 -48 109.5t-119 38.5 q-67 0 -115 -39t-58 -108h340z" />
<glyph unicode="&#xe9;" horiz-adv-x="585" d="M248 580l74 127h101v-2l-100 -130h-75v5zM546 215v-2q14 142 -56.5 216.5t-190.5 74.5q-111 0 -183 -72t-72 -184q0 -117 72 -187.5t188 -70.5q61 0 119 22.5t94 65.5l-55 50q-24 -29 -68.5 -45.5t-88.5 -16.5q-72 0 -121 40.5t-56 108.5h418zM129 282v1q10 69 58 108 t115 39q74 0 119 -38.5t48 -109.5h-340z" />
<glyph unicode="&#xea;" horiz-adv-x="586" d="M137 572l145 134h52l145 -134v-7h-85l-86 79l-86 -79h-85v7zM518 79h-1q-36 -43 -94 -65.5t-119 -22.5q-116 0 -188 70.5t-72 187.5q0 112 72 184t184 72q120 0 190.5 -74.5t56.5 -215.5h-418q7 -67 56 -107.5t121 -40.5q44 0 88.5 16.5t68.5 45.5zM469 284v-1 q-3 71 -48 109.5t-119 38.5q-67 0 -115 -39t-58 -108h340z" />
<glyph unicode="&#xeb;" horiz-adv-x="585" d="M148 651q0 33 26.5 47t53.5 0.5t27 -46.5t-26.5 -46.5t-53.5 -0.5t-27 46zM361 651q0 25 16.5 39.5t37 14.5t37 -14.5t16.5 -39.5q0 -33 -27 -46.5t-53.5 0t-26.5 46.5zM546 213v-2q14 142 -56.5 216.5t-190.5 74.5q-111 0 -183 -72t-72 -184q0 -117 72 -187.5t188 -70.5 q61 0 119 22.5t94 65.5l-55 51q-24 -29 -68.5 -45.5t-88.5 -16.5q-72 0 -121 40.5t-56 107.5h418zM129 281q10 69 58 108t115 39q74 0 119 -38.5t48 -108.5h-340z" />
<glyph unicode="&#xec;" horiz-adv-x="234" d="M21 697v3h90l50 -129v-5h-70zM75 487h84v-487h-84v487z" />
<glyph unicode="&#xed;" horiz-adv-x="235" d="M74 571l50 129h89v-3l-69 -131h-70v5zM160 0v487h-85v-487h85z" />
<glyph unicode="&#xee;" horiz-adv-x="235" d="M-12 571l113 131h43l110 -131v-7h-72l-60 74l-61 -74h-73v7zM75 487h85v-487h-85v487z" />
<glyph unicode="&#xef;" horiz-adv-x="235" d="M-10 650q0 32 26 45.5t52 0t26 -45.5t-26 -45.5t-52 0t-26 45.5zM149 650q0 32 26 45.5t52 0t26 -45.5t-26 -45.5t-52 0t-26 45.5zM160 1v487h-85v-487h85z" />
<glyph unicode="&#xf0;" horiz-adv-x="601" d="M299 64q81 0 128 52t47 123q0 70 -47 122t-128 52t-126 -51.5t-45 -122.5t45 -123t126 -52zM273 483q115 8 187 -70q-30 90 -142 157l-37 -48l-44 29l34 47q-36 20 -94 34l18 67q70 -16 123 -43l45 60l45 -31l-42 -56q185 -134 187 -377q1 -117 -68 -189.5t-186 -72.5 q-121 0 -188 73.5t-67 174.5q0 95 60 166.5t169 78.5z" />
<glyph unicode="&#xf1;" horiz-adv-x="608" d="M164 632l-1 1q11 43 44.5 62.5t75.5 5.5q6 -1 28.5 -12.5t28.5 -12.5q40 -13 55 26l54 -23q-11 -47 -45.5 -65t-72.5 -4q-5 2 -28.5 14t-29.5 13q-41 14 -56 -29zM75 495v1h75l4 -79q63 86 169 86q96 0 156.5 -61.5t60.5 -167.5v-273h-82v272q0 72 -40 113t-110 41 q-67 -1 -109.5 -47t-42.5 -114v-265h-81v494z" />
<glyph unicode="&#xf2;" horiz-adv-x="595" d="M278 576l-100 127v3h101l74 -125v-5h-75zM44 246q0 112 71.5 184.5t181.5 72.5t182 -72.5t72 -184.5t-71 -183.5t-183 -71.5q-111 0 -182 71.5t-71 183.5zM469 246h1q0 78 -49 130t-123 52q-75 0 -123.5 -51.5t-48.5 -130.5q0 -78 47.5 -128t123.5 -50t124 50t48 128z " />
<glyph unicode="&#xf3;" horiz-adv-x="594" d="M251 572v5l73 123h100v-3l-99 -125h-74zM550 246h1q0 112 -72 184.5t-182 72.5t-181.5 -72.5t-71.5 -184.5t71 -183.5t182 -71.5t182 71.5t71 183.5zM126 246h1q0 79 48.5 130.5t123.5 51.5q73 0 122 -52t49 -130t-48 -128t-124 -50t-124 50t-48 128z" />
<glyph unicode="&#xf4;" horiz-adv-x="594" d="M274 707h52l145 -134v-7h-85l-86 79l-86 -79h-85v7zM550 246h1q0 112 -72 184.5t-182 72.5t-181.5 -72.5t-71.5 -184.5t71 -183.5t182 -71.5t182 71.5t71 183.5zM126 246h1q0 79 48.5 130.5t123.5 51.5q73 0 122 -52t49 -130t-48 -128t-124 -50t-124 50t-48 128z" />
<glyph unicode="&#xf5;" horiz-adv-x="594" d="M159 627l-1 1q11 44 44.5 63.5t75.5 5.5q6 -1 29.5 -12.5t29.5 -12.5q40 -13 54 28l55 -23q-11 -49 -45.5 -67t-71.5 -3q-6 2 -28.5 13.5t-27.5 12.5q-44 15 -61 -30zM44 247q0 112 71.5 184.5t181.5 72.5t182 -72.5t72 -184.5t-71 -183.5t-183 -71.5q-111 0 -182 71.5 t-71 183.5zM469 247h1q0 78 -49 130t-123 52q-75 0 -123.5 -51.5t-48.5 -130.5q0 -78 47.5 -128t123.5 -50t124 50t48 128z" />
<glyph unicode="&#xf6;" horiz-adv-x="594" d="M141 645q0 25 16.5 39.5t37 14.5t37 -14.5t16.5 -39.5q0 -33 -26.5 -46.5t-53.5 0t-27 46.5zM351 644q0 33 26.5 47t53.5 0.5t27 -46.5t-27 -46.5t-53.5 -0.5t-26.5 46zM550 245h1q0 112 -72 184.5t-182 72.5t-181.5 -72.5t-71.5 -184.5t71 -183.5t182 -71.5t182 71.5 t71 183.5zM126 245h1q0 79 48.5 130.5t123.5 51.5q73 0 122 -52t49 -130t-48 -128t-124 -50t-124 50t-48 128z" />
<glyph unicode="&#xf7;" horiz-adv-x="564" d="M230 495q0 25 16.5 39.5t37 14.5t37 -14.5t16.5 -39.5q0 -33 -26.5 -46.5t-53.5 0t-27 46.5zM70 289h424v81h-424v-81zM230 159q0 25 16.5 39.5t37 14.5t37 -14.5t16.5 -39.5q0 -33 -26.5 -46.5t-53.5 0t-27 46.5z" />
<glyph unicode="&#xf8;" horiz-adv-x="594" d="M139 42q-95 71 -95 204q0 112 71.5 184.5t181.5 72.5q55 0 102 -21l37 63h80l-57 -97q92 -73 92 -202q0 -112 -71 -183.5t-183 -71.5q-54 0 -99 18l-40 -68h-79zM360 415l2 1q-31 13 -64 13q-75 0 -123.5 -51.5t-48.5 -130.5q0 -84 55 -133zM242 79q24 -10 57 -10 q76 0 124 50t48 128t-52 130z" />
<glyph unicode="&#xf9;" horiz-adv-x="609" d="M184 698v3h100l75 -128v-5h-75zM458 0h1l-4 79q-63 -85 -172 -87q-96 0 -155.5 61.5t-59.5 167.5v273h82v-272q0 -72 40 -113t110 -41q67 1 109.5 47t42.5 114v265h82v-494h-76z" />
<glyph unicode="&#xfa;" horiz-adv-x="608" d="M256 573l74 128h101v-3l-100 -130h-75v5zM533 494l1 2h-82v-265q0 -68 -42.5 -114.5t-109.5 -47.5q-70 -1 -110 40t-40 113v272h-82v-273q0 -106 59.5 -167.5t154.5 -61.5q110 2 171 87l4 -79h76v494z" />
<glyph unicode="&#xfb;" horiz-adv-x="609" d="M139 570l142 132h52l142 -132v-6h-84l-84 77l-84 -77h-84v6zM458 0h1l-4 79q-63 -85 -172 -87q-96 0 -155.5 61.5t-59.5 167.5v273h82v-272q0 -72 40 -113t110 -41q67 1 109.5 47t42.5 114v265h82v-494h-76z" />
<glyph unicode="&#xfc;" horiz-adv-x="608" d="M139 653q0 33 26.5 47t53.5 0.5t27 -46.5t-26.5 -46.5t-53.5 -0.5t-27 46zM368 653q0 25 16.5 39.5t37 14.5t37 -14.5t16.5 -39.5q0 -33 -26.5 -46.5t-53.5 0t-27 46.5zM533 493l1 1h-82v-265q0 -68 -42.5 -114.5t-109.5 -47.5q-70 -1 -110 40.5t-40 113.5v272h-82v-273 q0 -106 59.5 -167.5t154.5 -61.5q110 2 171 87l4 -80h76v495z" />
<glyph unicode="&#xfd;" horiz-adv-x="551" d="M224 578l72 123h99v-3l-98 -125h-73v5zM436 494l-109 -258l-54 -140l-53 141l-97 257h-93l198 -487l-103 -240h89l312 727h-90z" />
<glyph unicode="&#xfe;" horiz-adv-x="637" d="M76 -206l-1 -1v905h81v-300q27 48 79 76t111 28q108 -2 177 -69.5t69 -186.5q0 -122 -70 -189.5t-180 -67.5q-56 0 -106 26.5t-79 77.5v-299h-81zM336 68q75 0 124.5 46.5t49.5 131.5q0 84 -49.5 130t-124.5 46q-74 0 -123.5 -50.5t-49.5 -126.5q0 -75 50 -126t123 -51z " />
<glyph unicode="&#xff;" horiz-adv-x="551" d="M121 653q0 33 26 46t52 0t26 -46q0 -32 -26 -45.5t-52 0t-26 45.5zM346 653q0 33 26 46t52 0t26 -46q0 -32 -26 -45.5t-52 0t-26 45.5zM436 494l-109 -258l-54 -140l-53 141l-97 257h-93l198 -487l-103 -240h89l312 727h-90z" />
<glyph unicode="&#x100;" horiz-adv-x="760" d="M208 852h334v-71h-334v71zM331 700h98l314 -700h-94l-69 154h-400l-68 -154h-95zM546 234l-166 378l-166 -378h332z" />
<glyph unicode="&#x101;" horiz-adv-x="637" d="M153 687h334v-71h-334v71zM483 0l-2 -2l-2 90q-28 -49 -78 -74.5t-104 -25.5q-109 0 -181 70.5t-72 188.5q0 117 72.5 186.5t181.5 68.5q57 0 107 -25.5t76 -72.5l1 90h80v-494h-79zM302 425l-1 -1q-75 0 -126 -49.5t-51 -130.5t51 -131t126 -50q49 0 87.5 20t58.5 52 t29 70.5t0 77t-29 70.5t-58 52t-87 20z" />
<glyph unicode="&#x102;" horiz-adv-x="760" d="M516 903h-3q3 -63 -36 -98.5t-100 -35.5q-62 0 -101 35.5t-36 98.5h67q0 -31 17.5 -51t54.5 -20q35 0 52.5 20.5t17.5 50.5h67zM331 700h98l314 -700h-94l-69 154h-400l-68 -154h-95zM546 234l-166 378l-166 -378h332z" />
<glyph unicode="&#x103;" horiz-adv-x="637" d="M457 704h-2q3 -63 -36 -98.5t-101 -35.5t-101 35.5t-36 98.5h67q0 -31 17.5 -51t54.5 -20q35 0 52.5 20.5t17.5 50.5h67zM483 0l-2 -2l-2 90q-28 -49 -78 -74.5t-104 -25.5q-109 0 -181 70.5t-72 188.5q0 117 72.5 186.5t181.5 68.5q57 0 107 -25.5t76 -72.5l1 90h80 v-494h-79zM302 425l-1 -1q-75 0 -126 -49.5t-51 -130.5t51 -131t126 -50q49 0 87.5 20t58.5 52t29 70.5t0 77t-29 70.5t-58 52t-87 20z" />
<glyph unicode="&#x104;" horiz-adv-x="761" d="M744 -1v-2q-53 5 -85 0q-41 -7 -57 -33t0 -48.5t55 -20.5q43 2 72 38l45 -31q-31 -57 -112 -66q-38 -4 -67.5 7.5t-45.5 32.5t-20 47t5.5 50.5t35 44t63.5 25.5l-51 111h-403l-68 -154h-94l314 700h98zM547 233l-167 378l-166 -378h333z" />
<glyph unicode="&#x105;" horiz-adv-x="637" d="M562 -38l-1 -2q-49 5 -83 -14.5t-26 -51.5q3 -15 18 -25t38 -10q45 0 74 38l45 -31q-17 -31 -49 -48.5t-69 -18.5q-49 -1 -82 20.5t-40 58.5q-6 35 17 70t79 51l-4 89q-28 -49 -78 -74.5t-104 -25.5q-109 0 -181 70.5t-72 188.5q0 117 72.5 186.5t181.5 68.5 q57 0 107 -25.5t76 -72.5l1 90h80v-532zM303 425l-1 -1q-75 0 -126 -49.5t-51 -130.5t51 -131t126 -50q49 0 87.5 20t58.5 52t29 70.5t0 77t-29 70.5t-58 52t-87 20z" />
<glyph unicode="&#x106;" horiz-adv-x="708" d="M357 786l73 124h99v-3l-98 -126h-74v5zM613 153l1 -2q-83 -81 -200 -81q-134 0 -205 80t-73 196q-1 117 71.5 199t206.5 82q117 0 196 -78l60 56q-106 105 -256 105q-118 0 -203 -53.5t-124 -134.5t-38 -177q1 -150 95.5 -253.5t269.5 -103.5q155 0 260 105z" />
<glyph unicode="&#x107;" horiz-adv-x="517" d="M242 590l66 110h87v-2l-87 -113h-66v5zM432 121l-1 -4q-51 -51 -129 -51q-75 0 -125.5 47.5t-50.5 131.5q0 82 50.5 130.5t127.5 48.5q74 0 125 -50l52 54q-75 74 -179 74q-111 0 -184.5 -68t-73.5 -187t74 -187.5t184 -68.5q109 0 185 75z" />
<glyph unicode="&#x108;" horiz-adv-x="710" d="M382 918h52l142 -132v-6h-84l-85 77l-83 -77h-84v6zM675 93q-105 -104 -260 -104q-175 0 -269.5 103.5t-95.5 253.5q-1 96 38 177t124 134.5t203 53.5q149 0 256 -105l-60 -56q-79 78 -196 78q-134 0 -206.5 -82t-71.5 -199q2 -116 73 -195.5t205 -79.5q118 0 199 81z " />
<glyph unicode="&#x109;" horiz-adv-x="516" d="M270 712h50l137 -128v-6h-81l-81 75l-80 -75h-82v6zM487 66l-1 1q-76 -76 -184 -76q-110 0 -184 68.5t-74 187.5q0 120 73 188t185 68q104 0 179 -74l-52 -54q-51 50 -125 50q-76 0 -126.5 -48.5t-50.5 -129.5q0 -83 50.5 -130.5t125.5 -47.5q78 0 129 52z" />
<glyph unicode="&#x10a;" horiz-adv-x="708" d="M359 836q0 33 26.5 46.5t52.5 0.5t26 -46t-26 -46.5t-52.5 -0.5t-26.5 46zM613 153l1 -2q-83 -81 -200 -81q-134 0 -205 80t-73 196q-1 117 71.5 199t206.5 82q117 0 196 -78l60 56q-106 105 -256 105q-118 0 -203 -53.5t-124 -134.5t-38 -177q1 -150 95.5 -253.5 t269.5 -103.5q155 0 260 105z" />
<glyph unicode="&#x10b;" horiz-adv-x="517" d="M247 649q0 24 16 37.5t35 13.5t35 -13.5t16 -37.5t-16 -37.5t-35 -13.5t-35 13.5t-16 37.5zM432 121l-1 -4q-51 -51 -129 -51q-75 0 -125.5 47.5t-50.5 131.5q0 82 50.5 130.5t127.5 48.5q73 0 125 -49l52 53q-75 74 -179 74q-111 0 -184.5 -68t-73.5 -187t74 -187.5 t184 -68.5q109 0 185 75z" />
<glyph unicode="&#x10c;" horiz-adv-x="710" d="M241 902v7h83l82 -76l85 76h80v-7l-140 -125h-51zM675 93q-105 -104 -260 -104q-175 0 -269.5 103.5t-95.5 253.5q-1 96 38 177t124 134.5t203 53.5q149 0 256 -105l-60 -56q-79 78 -196 78q-134 0 -206.5 -82t-71.5 -199q2 -116 73 -195.5t205 -79.5q118 0 199 81z" />
<glyph unicode="&#x10d;" horiz-adv-x="516" d="M136 694v7h78l79 -75l82 75h77v-7l-135 -123h-49zM487 66l-1 1q-76 -76 -184 -76q-110 0 -184 68.5t-74 187.5q0 120 73 188t185 68q104 0 179 -74l-52 -54q-51 50 -125 50q-76 0 -126.5 -48.5t-50.5 -129.5q0 -83 50.5 -130.5t125.5 -47.5q78 0 129 52z" />
<glyph unicode="&#x10e;" horiz-adv-x="750" d="M161 900v7h82l82 -77l85 77h80v-7l-140 -128h-50zM93 700v1h255q86 0 154.5 -29t110 -78t64 -109t23.5 -127q2 -69 -19 -131.5t-63 -114t-112 -82t-158 -30.5h-255v700zM348 87q89 0 151 41t88.5 101t24.5 130q-2 106 -70 182t-194 76h-168v-530h168z" />
<glyph unicode="&#x10f;" horiz-adv-x="636" d="M648 700h81l-61 -173h-63zM560 700l1 1v-700h-77l-4 90q-29 -49 -78.5 -74.5t-106.5 -25.5q-109 0 -179.5 68.5t-70.5 187.5q0 121 70 188.5t179 67.5q56 0 108 -25.5t77 -73.5v296h81zM300 427h1q-75 0 -124.5 -47.5t-49.5 -131.5q0 -83 49.5 -131t124.5 -48t125 50 t50 130q0 78 -50.5 128t-125.5 50z" />
<glyph unicode="&#x110;" horiz-adv-x="756" d="M35 389v1h64v311h255q86 0 154.5 -29t110 -78t64 -109t23.5 -127q2 -69 -19 -131.5t-63 -114t-112 -82t-158 -30.5h-255v314h-64v75zM354 87q89 0 151 41t88.5 101t24.5 130q-2 106 -70 182t-194 76h-168v-227h129v-75h-129v-228h168z" />
<glyph unicode="&#x111;" horiz-adv-x="636" d="M560 700l1 1v-68h69v-60h-69v-572h-77l-4 90q-29 -49 -78.5 -74.5t-106.5 -25.5q-109 0 -179.5 68.5t-70.5 187.5q0 121 70 188.5t179 67.5q56 0 108 -25.5t77 -73.5v168h-106v60h106v68h81zM300 427h1q-75 0 -124.5 -47.5t-49.5 -131.5q0 -83 49.5 -131t124.5 -48 t125 50t50 130q0 78 -50.5 128t-125.5 50z" />
<glyph unicode="&#x112;" horiz-adv-x="651" d="M179 856h334v-71h-334v71zM93 0v700h492v-80h-406v-219h389v-81h-389v-237h422v-83h-508z" />
<glyph unicode="&#x113;" horiz-adv-x="586" d="M144 698h312v-67h-312v67zM518 79h-1q-36 -43 -94 -65.5t-119 -22.5q-116 0 -188 70.5t-72 187.5q0 112 72 184t184 72q120 0 190.5 -74.5t56.5 -215.5h-418q7 -67 56 -107.5t121 -40.5q44 0 88.5 16.5t68.5 45.5zM469 284v-1q-3 71 -48 109.5t-119 38.5q-67 0 -115 -39 t-58 -108h340z" />
<glyph unicode="&#x114;" horiz-adv-x="651" d="M493 902h-1q3 -61 -36.5 -95.5t-101.5 -34.5q-63 0 -102 34.5t-36 95.5h68q0 -30 17.5 -49.5t53.5 -19.5q35 0 52.5 19.5t17.5 49.5h68zM93 0v700h492v-80h-406v-219h389v-81h-389v-237h422v-83h-508z" />
<glyph unicode="&#x115;" horiz-adv-x="586" d="M439 703q3 -61 -36 -95.5t-101 -34.5q-63 0 -102 34.5t-37 95.5h67q0 -30 17.5 -49.5t53.5 -19.5q35 0 52.5 20t17.5 50zM518 78h-1q-36 -43 -94 -65.5t-119 -22.5q-116 0 -188 70.5t-72 188.5q0 112 72 184t184 72q120 0 190.5 -74.5t56.5 -216.5h-418q7 -67 56 -107.5 t121 -40.5q44 0 88.5 16.5t68.5 45.5zM469 283q-3 71 -48 109.5t-119 38.5q-67 0 -115 -39t-58 -109h340z" />
<glyph unicode="&#x116;" horiz-adv-x="651" d="M298 829q0 33 27.5 46t55 0t27.5 -46t-27.5 -46t-55 0t-27.5 46zM93 0v700h492v-80h-406v-219h389v-81h-389v-237h422v-83h-508z" />
<glyph unicode="&#x117;" horiz-adv-x="585" d="M248 659q0 24 17 37.5t37.5 13.5t37.5 -13.5t17 -37.5t-17 -37.5t-37.5 -13.5t-37.5 13.5t-17 37.5zM546 215v-2q14 142 -56.5 216.5t-190.5 74.5q-111 0 -183 -72t-72 -184q0 -117 72 -187.5t188 -70.5q61 0 119 22.5t94 65.5l-55 50q-24 -29 -68.5 -45.5t-88.5 -16.5 q-72 0 -121 40.5t-56 108.5h418zM129 282v1q10 69 58 108t115 39q74 0 119 -38.5t48 -109.5h-340z" />
<glyph unicode="&#x118;" horiz-adv-x="652" d="M601 0l3 1q-69 1 -104.5 -24t-27.5 -52q9 -31 51 -31q49 0 79 38l47 -31q-18 -33 -53 -53t-74 -22q-47 -2 -79.5 18.5t-39.5 54.5q-6 27 6.5 55.5t46.5 45.5h-363v700h493v-82h-407v-217h390v-80h-390v-239h422v-82z" />
<glyph unicode="&#x119;" horiz-adv-x="586" d="M551 -82l-3 2q-17 -31 -51 -49.5t-71 -20.5q-41 -2 -71.5 13t-41.5 43q-22 47 8 89q-12 -2 -22 -2q-115 3 -186 72.5t-71 183.5q0 112 72 184t184 72q120 0 190.5 -74.5t56.5 -215.5h-418q7 -67 56 -107.5t121 -40.5q44 0 88.5 16.5t68.5 45.5l55 -50q-40 -47 -107 -71 q-23 -10 -32.5 -28.5t-0.5 -38.5q14 -29 54 -29q46 0 76 37zM466 286v-1q-3 71 -48 109.5t-119 38.5q-67 0 -115 -39t-58 -108h340z" />
<glyph unicode="&#x11a;" horiz-adv-x="651" d="M174 895v7h84l84 -77l86 77h83v-7l-144 -127h-51zM93 0v700h492v-80h-406v-219h389v-81h-389v-237h422v-83h-508z" />
<glyph unicode="&#x11b;" horiz-adv-x="586" d="M133 694v7h85l84 -76l87 76h83v-7l-144 -127h-52zM518 79h-1q-36 -43 -94 -65.5t-119 -22.5q-116 0 -188 70.5t-72 187.5q0 112 72 184t184 72q120 0 190.5 -74.5t56.5 -215.5h-418q7 -67 56 -107.5t121 -40.5q44 0 88.5 16.5t68.5 45.5zM469 284v-1q-3 71 -48 109.5 t-119 38.5q-67 0 -115 -39t-58 -108h340z" />
<glyph unicode="&#x11c;" horiz-adv-x="742" d="M373 917h51l141 -132v-6h-84l-83 77l-83 -77h-84v6zM683 107l4 -1q-111 -119 -271 -119q-90 0 -161.5 29t-115 79t-66 113.5t-22.5 135.5q-1 161 98 265.5t266 104.5q151 0 257 -105l-54 -57q-40 39 -94.5 60t-109.5 21q-130 0 -204.5 -83.5t-74.5 -204.5 q0 -115 71.5 -194.5t206.5 -79.5q107 0 188 70v164h-215v79h297v-277z" />
<glyph unicode="&#x11d;" horiz-adv-x="611" d="M281 713h52l141 -128v-6h-84l-84 75l-82 -75h-85v6zM501 421v-1q64 -72 64 -160q0 -69 -36.5 -124t-105.5 -77q70 -20 104.5 -62.5t34.5 -98.5q0 -91 -76 -142t-182 -51q-114 0 -184.5 56.5t-68.5 154.5h81q-1 -62 49.5 -96.5t123.5 -35.5q71 0 122.5 29t51.5 85 q0 57 -49.5 88t-123.5 31q-118 0 -189.5 65t-71.5 179q0 115 78.5 180t182.5 65q87 0 140 -37l53 64l58 -46zM483 261l2 -1q0 80 -52 124.5t-127 44.5q-73 0 -126.5 -43.5t-53.5 -124.5t50.5 -125t128.5 -44t128 48.5t50 120.5z" />
<glyph unicode="&#x11e;" horiz-adv-x="745" d="M551 908l-3 2q3 -60 -36.5 -94t-102.5 -34t-102.5 33.5t-36.5 93.5h68q0 -29 17.5 -48t54.5 -20q36 0 54 19t18 48h69zM618 554l4 -1q-40 39 -94.5 60t-109.5 21q-130 0 -204.5 -83.5t-74.5 -204.5q0 -115 71.5 -194.5t206.5 -79.5q107 0 188 70v164h-215v79h297v-277 q-111 -119 -271 -119q-90 0 -161.5 29t-115 79t-66 113.5t-22.5 135.5q-1 161 98 265.5t266 104.5q151 0 257 -105z" />
<glyph unicode="&#x11f;" horiz-adv-x="611" d="M446 710h-1q3 -62 -36 -97.5t-100 -35.5q-62 0 -101 35t-37 98h67q0 -30 17.5 -50t53.5 -20q35 0 52.5 20t17.5 50h67zM501 421v-1q64 -72 64 -160q0 -69 -36.5 -124t-105.5 -77q70 -20 104.5 -62.5t34.5 -98.5q0 -91 -76 -142t-182 -51q-114 0 -184.5 56.5t-68.5 154.5 h81q-1 -62 49.5 -96.5t123.5 -35.5q71 0 122.5 29t51.5 85q0 57 -49.5 88t-123.5 31q-118 0 -189.5 65t-71.5 179q0 115 78.5 180t182.5 65q87 0 140 -37l53 64l58 -46zM126 261l2 -1q0 -81 50.5 -125t128.5 -44t128 48.5t50 120.5q0 80 -52 124.5t-127 44.5 q-73 0 -126.5 -43.5t-53.5 -124.5z" />
<glyph unicode="&#x120;" horiz-adv-x="744" d="M358 833q0 24 17 37.5t37.5 13.5t37.5 -13.5t17 -37.5t-17 -37.5t-37.5 -13.5t-37.5 13.5t-17 37.5zM672 608h-1q-107 105 -257 105q-167 0 -266 -104.5t-99 -265.5q0 -72 22.5 -135.5t66 -113.5t115 -79t161.5 -29q160 0 271 119v277h-297v-79h215v-163 q-81 -70 -188 -70q-135 0 -206.5 79.5t-71.5 195.5q-1 121 73.5 204.5t204.5 83.5q55 0 109.5 -21.5t93.5 -60.5z" />
<glyph unicode="&#x121;" horiz-adv-x="612" d="M261 658q0 32 28 45.5t56 0t28 -45.5q0 -33 -28 -46t-56 0t-28 46zM449 470l-2 2q-53 37 -140 37q-105 0 -183.5 -65t-78.5 -180q0 -114 71.5 -179t189.5 -65q74 0 123.5 -31t49.5 -88q0 -56 -52 -87t-122 -31q-71 0 -123 36.5t-51 97.5h-79q-1 -97 69.5 -153.5 t185.5 -56.5q106 0 182 51t76 142q0 56 -34.5 98.5t-104.5 62.5q69 22 104 77.5t35 124.5q0 90 -61 159l56 65l-58 46zM306 433q74 0 126 -44.5t52 -124.5q0 -71 -50 -119.5t-128 -48.5q-79 0 -129.5 44t-50.5 124q0 81 53.5 125t126.5 44z" />
<glyph unicode="&#x122;" horiz-adv-x="745" d="M618 552l4 -1q-40 39 -94.5 60t-109.5 21q-130 0 -204.5 -83.5t-74.5 -204.5q0 -115 71.5 -194.5t206.5 -79.5q107 0 188 70v164h-215v79h297v-277q-111 -119 -271 -119q-90 0 -161.5 29t-115 79t-66 113.5t-22.5 135.5q-1 161 98 265.5t266 104.5q151 0 257 -105z M409 -174l1 1q-38 7 -38 44q0 33 27 46t53.5 -0.5t26.5 -46.5q0 -8 -16.5 -51.5t-27.5 -65.5h-55z" />
<glyph unicode="&#x123;" horiz-adv-x="611" d="M334 674l-1 -1q38 -7 38 -44q0 -33 -26.5 -46t-53.5 1t-27 47q0 8 16.5 51.5t27.5 65.5h55zM557 486v-1l-56 -66q64 -72 64 -160q0 -69 -36.5 -124t-105.5 -77q70 -20 104.5 -62.5t34.5 -98.5q0 -91 -76 -142t-182 -51q-114 0 -184.5 56.5t-68.5 154.5h81 q-1 -62 49.5 -96.5t123.5 -35.5q71 0 122.5 29t51.5 85q0 57 -49.5 88t-123.5 31q-118 0 -189.5 65t-71.5 179q0 115 78.5 180t182.5 65q87 0 140 -37l53 64zM126 260l2 -1q0 -81 50.5 -125t128.5 -44t128 48.5t50 120.5q0 80 -52 124.5t-127 44.5q-73 0 -126.5 -43.5 t-53.5 -124.5z" />
<glyph unicode="&#x124;" horiz-adv-x="764" d="M358 911h52l142 -133v-7h-84l-84 78l-84 -78h-84v7zM93 700h89v-316h400v316h89v-700h-89v302h-400v-302h-89v700z" />
<glyph unicode="&#x125;" horiz-adv-x="596" d="M276 902h50l140 -130v-6h-83l-83 76l-82 -76h-82v6zM75 700v-1h81v-287q56 86 167 88q101 0 153 -61t52 -167v-273h-81v272q0 73 -35.5 112.5t-102.5 39.5t-109.5 -46.5t-42.5 -114.5v-262h-82v700z" />
<glyph unicode="&#x126;" horiz-adv-x="776" d="M588 0v302h-400v-302h-89v526h-70v60h70v114h89v-114h400v114h89v-114h71v-60h-71v-526h-89zM588 384v142h-400v-142h400z" />
<glyph unicode="&#x127;" horiz-adv-x="596" d="M12 628v-1h63v72h81v-72h119v-60h-119v-155q56 86 167 88q101 0 153 -61t52 -167v-273h-81v272q0 73 -35.5 112.5t-102.5 39.5t-109.5 -46.5t-42.5 -114.5v-262h-82v568h-63v60z" />
<glyph unicode="&#x128;" horiz-adv-x="274" d="M0 804l-2 2q11 44 43 64t72 5q5 -1 27 -12.5t27 -12.5q38 -15 52 26l52 -23q-11 -49 -43 -67t-69 -4q-6 2 -27 14t-25 13q-40 15 -57 -29zM93 2v700h88v-700h-88z" />
<glyph unicode="&#x129;" horiz-adv-x="235" d="M1 641l1 -1q9 41 37 59.5t62 5.5q5 -2 24 -12.5t23 -11.5q35 -14 46 26l45 -22q-10 -46 -38.5 -63t-60.5 -3q-5 2 -24 13.5t-22 12.5q-36 13 -49 -27zM76 486h85v-487h-85v487z" />
<glyph unicode="&#x12a;" horiz-adv-x="274" d="M6 848h262v-69h-262v69zM93 0v700h88v-700h-88z" />
<glyph unicode="&#x12b;" horiz-adv-x="235" d="M1 696h233v-69h-233v69zM75 487h85v-487h-85v487z" />
<glyph unicode="&#x12c;" horiz-adv-x="274" d="M270 897h-1q4 -60 -33 -91.5t-97 -31.5q-61 0 -97.5 32.5t-32.5 91.5h65q0 -63 66 -63t66 62h64zM93 0v700h88v-700h-88z" />
<glyph unicode="&#x12d;" horiz-adv-x="235" d="M238 700h1q2 -59 -32.5 -92.5t-89.5 -33.5t-89.5 33.5t-32.5 92.5h59q0 -29 15.5 -48t47.5 -19q31 0 46.5 19t15.5 48h59zM75 487h85v-487h-85v487z" />
<glyph unicode="&#x12e;" horiz-adv-x="276" d="M273 -99v1q-34 -63 -118 -67q-48 -1 -81 20.5t-41 57.5q-7 32 8 64t54 47v676h88v-700q-48 1 -71.5 -19.5t-14.5 -48.5q5 -15 20 -25t36 -9q47 0 74 35z" />
<glyph unicode="&#x12f;" horiz-adv-x="236" d="M67 645q0 34 27 47.5t54 -0.5t27 -48t-27 -47.5t-54 0.5t-27 48zM79 496v2v-472q-34 -12 -50 -38.5t-13.5 -54.5t20.5 -48q27 -52 99.5 -50t104.5 58l-45 30q-25 -26 -57.5 -27.5t-49.5 19.5q-20 28 2 57t71 28v496h-82z" />
<glyph unicode="&#x130;" horiz-adv-x="274" d="M84 829q0 34 27 47.5t54 -0.5t27 -48t-27 -47.5t-54 0.5t-27 48zM181 0v700h-88v-700h88z" />
<glyph unicode="&#x131;" horiz-adv-x="235" d="M160 487v-487h-85v487h85z" />
<glyph unicode="&#x132;" horiz-adv-x="961" d="M93 0v700h87v-700h-87zM876 280q2 -132 -77.5 -212.5t-211.5 -80.5q-128 0 -209 78.5t-81 210.5h86q0 -95 55.5 -151t148.5 -56t148 57.5t55 153.5v340h-245v80h331v-420z" />
<glyph unicode="&#x133;" horiz-adv-x="464" d="M63 645q0 34 27 47.5t54 -0.5t27 -48t-27 -47.5t-54 0.5t-27 48zM75 496v-496h82v496h-82zM295 648q0 34 27 47.5t54 -0.5t27 -48t-27 -47.5t-54 0.5t-27 48zM308 495h-1v-560q0 -52 -13 -77.5t-55 -26.5q-33 0 -67 17l-27 -66q47 -28 98 -28q79 0 113 46t33 135v560h-81 z" />
<glyph unicode="&#x134;" horiz-adv-x="689" d="M234 781l142 133h52l142 -133v-6h-84l-84 77l-84 -77h-84v6zM603 280l3 -1q0 -132 -80.5 -212t-211.5 -80q-128 0 -209 78.5t-81 210.5h86q0 -95 55 -150t148 -55q94 0 148 56.5t54 152.5v339h-243v81h331v-420z" />
<glyph unicode="&#x135;" horiz-adv-x="231" d="M-25 573l120 134h44l120 -134v-6h-72l-70 77l-69 -77h-73v6zM156 -65l1 1q1 -89 -33 -135.5t-113 -46.5q-51 0 -98 28l27 66q34 -19 67 -17q42 1 55 26.5t13 77.5v560h81v-560z" />
<glyph unicode="&#x136;" horiz-adv-x="626" d="M91 700h89v-309l307 309h109v-5l-333 -332l363 -357v-6h-111l-335 329v-328h-89v699zM321 -160l2 -1q-38 7 -38 45q0 33 26.5 46t53.5 -0.5t27 -46.5q0 -9 -16.5 -52.5t-28.5 -63.5h-55z" />
<glyph unicode="&#x137;" horiz-adv-x="496" d="M156 700v-414l203 208h102v-5l-228 -228l256 -255v-6h-100l-233 233v-233h-81v700h81zM254 -157h1q-36 7 -36 43q0 31 25.5 43.5t51 -0.5t25.5 -44q0 -8 -15.5 -49.5t-26.5 -62.5h-52z" />
<glyph unicode="&#x138;" horiz-adv-x="496" d="M156 494v-208l203 208h102v-5l-228 -228l256 -255v-6h-100l-233 233v-233h-81v494h81z" />
<glyph unicode="&#x139;" horiz-adv-x="579" d="M112 783l73 123h98v-3l-97 -125h-74v5zM93 700v-700h468v83h-379v617h-89z" />
<glyph unicode="&#x13a;" horiz-adv-x="244" d="M81 775l69 117h94v-3l-92 -119h-71v5zM81 700v-700h82v700h-82z" />
<glyph unicode="&#x13b;" horiz-adv-x="579" d="M182 700v-617h379v-83h-468v700h89zM323 -168l2 1q-38 7 -38 44q0 33 26.5 46t53.5 -0.5t27 -46.5q0 -8 -16.5 -52t-28.5 -65h-55z" />
<glyph unicode="&#x13c;" horiz-adv-x="244" d="M163 700v-700h-82v700h82zM106 -163v-1q-36 7 -36 44q0 19 11 32t26 16t30.5 -0.5t26.5 -17t11 -32.5q0 -8 -16 -50t-28 -63h-53z" />
<glyph unicode="&#x13d;" horiz-adv-x="582" d="M182 700v-617h379v-83h-468v700h89zM414 696h85l-64 -177h-64z" />
<glyph unicode="&#x13e;" horiz-adv-x="238" d="M250 701h81l-62 -177h-62zM163 700v-700h-82v700h82z" />
<glyph unicode="&#x13f;" horiz-adv-x="581" d="M182 700v-617h379v-83h-468v700h89zM318 306q0 35 28 49.5t56 0t28 -49.5t-28 -49.5t-56 0t-28 49.5z" />
<glyph unicode="&#x140;" horiz-adv-x="348" d="M163 700v-700h-82v700h82zM239 302q0 35 28 49.5t56 0t28 -49.5t-28 -49.5t-56 0t-28 49.5z" />
<glyph unicode="&#x141;" horiz-adv-x="588" d="M100 276l-74 -32v71l74 33v352h89v-311l112 51v-73l-112 -50v-234h379v-83h-468v276z" />
<glyph unicode="&#x142;" horiz-adv-x="274" d="M176 700v-315l76 34v-69l-76 -33v-317h-82v280l-68 -29v67l68 30v352h82z" />
<glyph unicode="&#x143;" horiz-adv-x="762" d="M326 778l73 125h100v-2l-99 -128h-74v5zM183 0v527l426 -527h60v700h-88v-530l-427 530h-61v-700h90z" />
<glyph unicode="&#x144;" horiz-adv-x="602" d="M252 580l70 120h95v-3l-95 -121h-70v4zM156 0h-1v265q0 68 42.5 114.5t109.5 47.5q70 1 110 -40.5t40 -113.5v-272h82v273q0 106 -60.5 167.5t-155.5 61.5q-107 -2 -169 -88l-4 79h-75v-494h81z" />
<glyph unicode="&#x145;" horiz-adv-x="762" d="M93 700h61l427 -530v530h88v-700h-60l-426 527v-527h-90v700zM377 -165l2 1q-38 7 -38 44q0 33 26.5 46t53.5 -0.5t27 -46.5q0 -8 -16.5 -52t-28.5 -65h-55z" />
<glyph unicode="&#x146;" horiz-adv-x="606" d="M456 0v1v272q0 72 -40 113t-110 41q-67 -1 -109.5 -47t-42.5 -114v-265h-81v494h75l4 -79q63 86 169 86q96 0 156.5 -61.5t60.5 -167.5v-273h-82zM293 -155h1q-35 7 -35 41q0 31 25 43.5t50.5 -0.5t25.5 -43q0 -8 -15.5 -49t-26.5 -61h-52z" />
<glyph unicode="&#x147;" horiz-adv-x="762" d="M217 900v7h84l83 -77l86 77h81v-7l-142 -130h-51zM93 700h61l427 -530v530h88v-700h-60l-426 527v-527h-90v700z" />
<glyph unicode="&#x148;" horiz-adv-x="608" d="M144 701v6h81l82 -76l84 76h81v-6l-140 -129h-51zM75 494v1h75l4 -79q63 86 169 86q96 0 156.5 -61.5t60.5 -167.5v-273h-82v272q0 72 -40 113t-110 41q-67 -1 -109.5 -47t-42.5 -114v-265h-81v494z" />
<glyph unicode="&#x149;" horiz-adv-x="608" d="M150 494v1l4 -79q63 86 169 86q96 0 156.5 -61.5t60.5 -167.5v-273h-82v272q0 72 -40 113t-110 41q-67 -1 -109.5 -47t-42.5 -114v-265h-81v494h75z" />
<glyph unicode="&#x14a;" horiz-adv-x="762" d="M669 -25v1q1 -89 -33 -135.5t-113 -46.5q-47 0 -96 28l28 66q34 -18 65 -17q42 1 55.5 26.5t13.5 77.5v50l-406 502v-527h-90v700h61l427 -532v532h88v-725z" />
<glyph unicode="&#x14b;" horiz-adv-x="606" d="M538 -24l1 2q1 -89 -33 -135.5t-113 -46.5q-46 0 -93 28l27 66q34 -18 62 -17q41 1 54 26t13 78v296q0 72 -40 113t-110 41q-67 -1 -109.5 -47t-42.5 -114v-265h-81v494h75l4 -79q63 86 169 86q96 0 156.5 -61.5t60.5 -167.5v-297z" />
<glyph unicode="&#x14c;" horiz-adv-x="809" d="M237 867h334v-71h-334v71zM406 712q168 -1 261.5 -108t92.5 -256q0 -70 -22.5 -134t-65 -115.5t-111.5 -82t-156 -30.5t-156.5 30.5t-112 82t-65 115t-22.5 134.5q0 156 97.5 260t259.5 104zM673 347l1 1q1 74 -27 136.5t-90.5 104.5t-149.5 43q-128 0 -200 -82t-70 -202 q2 -115 71 -197t198 -82t198 82t69 196z" />
<glyph unicode="&#x14d;" horiz-adv-x="595" d="M143 689h307v-69h-307v69zM44 246q0 112 71.5 184.5t181.5 72.5t182 -72.5t72 -184.5t-71 -183.5t-183 -71.5q-111 0 -182 71.5t-71 183.5zM469 246h1q0 78 -49 130t-123 52q-75 0 -123.5 -51.5t-48.5 -130.5q0 -78 47.5 -128t123.5 -50t124 50t48 128z" />
<glyph unicode="&#x14e;" horiz-adv-x="809" d="M542 908v1q3 -60 -36.5 -94t-102.5 -34t-102.5 33.5t-36.5 93.5h68q0 -29 17.5 -47.5t53.5 -18.5q35 0 53 19t18 47h68zM406 713q168 -1 261.5 -108t92.5 -256q0 -70 -22.5 -134t-65 -115.5t-111.5 -82t-156 -30.5t-156.5 30.5t-112 82t-65 115t-22.5 134.5 q0 156 97.5 260t259.5 104zM673 348l1 1q1 74 -27 136.5t-90.5 104.5t-149.5 43q-128 0 -200 -82t-70 -202q2 -115 71 -197t198 -82t198 82t69 196z" />
<glyph unicode="&#x14f;" horiz-adv-x="595" d="M434 702v-1q3 -62 -36 -96.5t-101 -33.5q-62 0 -100.5 34.5t-35.5 96.5h66q0 -30 17.5 -49.5t53.5 -19.5q35 0 52 19.5t17 49.5h67zM44 245q0 112 71.5 184.5t181.5 72.5t182 -72.5t72 -184.5t-71 -183.5t-183 -71.5q-111 0 -182 71.5t-71 183.5zM469 245h1q0 78 -49 130 t-123 52q-75 0 -123.5 -51.5t-48.5 -130.5q0 -78 47.5 -128t123.5 -50t124 50t48 128z" />
<glyph unicode="&#x150;" horiz-adv-x="809" d="M279 783l77 120h91l-97 -120h-71zM505 903h92l-99 -121h-70zM49 348q0 156 97.5 260t259.5 104q168 -1 261.5 -108t92.5 -256q0 -70 -22.5 -134t-65 -115.5t-111.5 -82t-156 -30.5t-156.5 30.5t-112 82t-65 115t-22.5 134.5zM673 347l1 1q1 74 -27 136.5t-90.5 104.5 t-149.5 43q-128 0 -200 -82t-70 -202q2 -115 71 -197t198 -82t198 82t69 196z" />
<glyph unicode="&#x151;" horiz-adv-x="594" d="M248 695h88v-2l-94 -106h-69zM393 694h88v-1l-96 -106h-67zM550 246h1q0 112 -72 184.5t-182 72.5t-181.5 -72.5t-71.5 -184.5t71 -183.5t182 -71.5t182 71.5t71 183.5zM126 246h1q0 79 48.5 130.5t123.5 51.5q73 0 122 -52t49 -130t-48 -128t-124 -50t-124 50t-48 128z " />
<glyph unicode="&#x152;" horiz-adv-x="987" d="M495 0v-1q-47 -10 -90 -10q-170 0 -262.5 103.5t-92.5 258.5q0 101 38.5 180.5t120 128.5t196.5 49q37 0 91 -9h429v-85h-350v-222h332v-83h-332v-224h358v-86h-438zM495 622v1q-39 13 -90 13q-128 0 -197.5 -81.5t-69.5 -204.5q1 -117 71.5 -201t197.5 -84q49 0 88 12 v545z" />
<glyph unicode="&#x153;" horiz-adv-x="996" d="M928 79h-1q-36 -43 -93 -65.5t-118 -22.5q-72 0 -128.5 33.5t-83.5 92.5q-62 -125 -207 -125q-111 0 -182 71.5t-71 183.5t71.5 185t181.5 73q71 0 126 -33.5t83 -93.5q25 57 80.5 92t125.5 35q120 0 189 -74t55 -215q-331 0 -412 -1q7 -68 54.5 -108t119.5 -40 q44 0 87.5 16.5t67.5 45.5zM879 284v-1q-3 71 -47 109.5t-118 38.5q-66 0 -113.5 -39t-57.5 -108h336zM126 245h1q0 -78 47.5 -128t123.5 -50t123.5 50t47.5 128t-48.5 130t-122.5 52q-75 0 -123.5 -51.5t-48.5 -130.5z" />
<glyph unicode="&#x154;" horiz-adv-x="714" d="M288 785l73 124h99v-3l-98 -126h-74v5zM448 259l1 1q102 9 153.5 70t50.5 147q-1 92 -64.5 157.5t-175.5 65.5h-320v-700h89v251h166l224 -251h107zM183 618h1h231q71 0 109.5 -42.5t37.5 -99.5q-1 -63 -39 -102.5t-113 -39.5h-227v284z" />
<glyph unicode="&#x155;" horiz-adv-x="427" d="M195 584l68 116h93v-3l-92 -117h-69v4zM75 494v1v-494h82v275q0 66 42 106t103 40q47 0 86 -27l37 70q-50 38 -116 37q-108 0 -152 -82l-6 74h-76z" />
<glyph unicode="&#x156;" horiz-adv-x="713" d="M93 700l-1 -1h320q113 0 176.5 -65.5t63.5 -157.5q1 -86 -50.5 -147t-153.5 -70l231 -259h-107l-224 251h-166v-251h-89v700zM408 332q75 0 113 39.5t38 102.5q1 57 -37.5 99.5t-109.5 42.5h-231v-284h227zM356 -166l2 1q-38 7 -38 44q0 33 27 46t53.5 -0.5t26.5 -46.5 q0 -8 -16.5 -52t-28.5 -65h-55z" />
<glyph unicode="&#x157;" horiz-adv-x="428" d="M151 494l1 1l6 -74q44 82 152 82q65 2 115 -37l-37 -70q-39 27 -86 27q-61 -1 -103 -41.5t-42 -106.5v-275h-82v494h76zM103 -159q-35 7 -35 42q0 31 25 43.5t50.5 -0.5t25.5 -44q0 -8 -15.5 -49t-26.5 -61h-51z" />
<glyph unicode="&#x158;" horiz-adv-x="713" d="M171 902v6h85l84 -77l86 77h82v-6l-143 -130h-52zM93 700l-1 -1h320q113 0 176.5 -65.5t63.5 -157.5q1 -86 -50.5 -147t-153.5 -70l231 -259h-107l-224 251h-166v-251h-89v700zM408 332q75 0 113 39.5t38 102.5q1 57 -37.5 99.5t-109.5 42.5h-231v-284h227z" />
<glyph unicode="&#x159;" horiz-adv-x="428" d="M272 569h-49l-132 127v6h79l78 -75l81 75h77v-6zM75 494l1 1h76l6 -74q44 82 152 82q65 2 115 -37l-37 -70q-39 27 -86 27q-61 -1 -103 -41.5t-42 -106.5v-275h-82v494z" />
<glyph unicode="&#x15a;" horiz-adv-x="665" d="M287 787l74 127h101v-3l-100 -129h-75v5zM599 588l-3 2q-43 73 -109.5 100.5t-155.5 27.5q-48 0 -93.5 -11t-86 -33t-65 -62t-23.5 -92q0 -41 15.5 -72.5t38.5 -51t61 -34.5t70.5 -22t80.5 -15q46 -7 77 -15.5t61.5 -22.5t46 -37t15.5 -54q0 -48 -32.5 -78t-73 -40 t-88.5 -10q-70 0 -132 31t-89 89l-76 -39q38 -83 116.5 -122t179.5 -39q54 0 102 11t90.5 34t67.5 65t25 98q0 46 -16.5 80.5t-40 55t-64.5 36.5t-73.5 23t-83.5 15q-46 8 -74 14.5t-57.5 19t-43 32t-13.5 46.5q0 59 54 89.5t128 30.5q139 -2 192 -88z" />
<glyph unicode="&#x15b;" horiz-adv-x="499" d="M201 584l68 117h93v-2l-92 -119h-69v4zM440 439l-1 -2q-73 66 -188 66q-51 1 -94.5 -13t-74.5 -48t-31 -84q0 -38 17 -64.5t48 -41.5t61 -23t72 -13q65 -8 99.5 -25t33.5 -54q-1 -40 -39 -58t-86 -17q-114 0 -176 77l-47 -57q75 -94 221 -94q88 0 147 39t60 110 q1 29 -7.5 52.5t-25.5 38.5t-35 25.5t-45.5 17.5t-46.5 10t-48 7q-56 7 -89 23t-34 50q-1 35 33.5 54t88.5 18q86 0 140 -48z" />
<glyph unicode="&#x15c;" horiz-adv-x="664" d="M173 789l145 135h52l145 -135v-6h-85l-86 79l-86 -79h-85v6zM526 550l1 -2q-53 86 -192 88q-74 0 -128 -30.5t-54 -89.5q0 -27 13.5 -46.5t43 -32t57.5 -19t74 -14.5q51 -8 83.5 -15t73.5 -23t64.5 -36.5t40 -55t16.5 -80.5q0 -56 -25.5 -98t-68 -65t-90.5 -34t-101 -11 q-100 0 -179 39.5t-117 122.5l76 39q27 -58 89 -88.5t132 -30.5q35 0 67 6t62 19.5t48 40t18 63.5q0 31 -15 54t-45.5 37t-62 22t-76.5 15q-48 7 -80.5 14.5t-70.5 22t-61 34t-38.5 51t-15.5 72.5q-1 52 23.5 92t65 62t86 33t93.5 11q89 0 155.5 -28t109.5 -101z" />
<glyph unicode="&#x15d;" horiz-adv-x="499" d="M231 703h50l137 -128v-6h-81l-81 74l-80 -74h-83v6zM393 385l-1 -1q-53 48 -139 48q-54 1 -88.5 -18t-33.5 -54q1 -59 123 -73q35 -4 57.5 -8t54.5 -14.5t50.5 -25.5t32.5 -41.5t13 -61.5q-1 -71 -60 -110t-147 -39q-146 0 -221 94l47 57q62 -76 176 -76q49 0 86.5 18 t38.5 59q1 37 -33.5 54t-99.5 25q-42 5 -72 13t-61 23t-47.5 41.5t-16.5 64.5q0 50 31 84t74.5 48t94.5 13q115 0 188 -66z" />
<glyph unicode="&#x15e;" horiz-adv-x="663" d="M358 -58l1 -1q60 1 84 -31.5t15 -74.5q-10 -39 -44 -59.5t-77 -19.5q-80 2 -114 58l40 35q25 -35 75 -35q47 0 56 32q9 29 -20 45.5t-71 1.5l-17 13l23 80q-92 4 -163.5 43t-107.5 117l76 39q27 -58 89 -88.5t132 -30.5q35 0 67 6t62 19.5t48 40t18 63.5q0 31 -15 54 t-45.5 37t-62 22t-76.5 15q-48 7 -80.5 14.5t-70.5 22t-61 34t-38.5 51t-15.5 72.5q-1 52 23.5 92t65 62t86 33t93.5 11q89 0 155.5 -28t109.5 -101l-72 -38q-53 86 -192 88q-74 0 -128 -30.5t-54 -89.5q0 -27 13.5 -46.5t43 -32t57.5 -19t74 -14.5q51 -8 83.5 -15t73.5 -23 t64.5 -36.5t40 -55t16.5 -80.5q-1 -99 -72 -149t-176 -58z" />
<glyph unicode="&#x15f;" horiz-adv-x="500" d="M275 -51l1 -1q60 2 82.5 -27t13.5 -67q-9 -36 -41.5 -54.5t-72.5 -17.5q-77 2 -109 53l38 31q24 -33 70 -31q44 0 53 29q9 26 -18 40t-67 0l-16 12l23 72q-130 7 -198 94l47 57q62 -77 176 -77q49 0 86.5 18t38.5 59q1 37 -33.5 54t-99.5 25q-42 5 -72 13t-61 23 t-47.5 41.5t-16.5 64.5q0 50 31 84t74.5 48t94.5 13q115 0 188 -66l-47 -54q-53 48 -139 48q-54 1 -88.5 -18t-33.5 -54q1 -59 123 -73q35 -4 57.5 -8t54.5 -14.5t50.5 -25.5t32.5 -41.5t13 -61.5q-1 -65 -50.5 -103t-126.5 -45z" />
<glyph unicode="&#x160;" horiz-adv-x="664" d="M172 915v6h85l86 -80l89 80h83v-6l-146 -135h-53zM526 550l1 -2q-53 86 -192 88q-74 0 -128 -30.5t-54 -89.5q0 -27 13.5 -46.5t43 -32t57.5 -19t74 -14.5q51 -8 83.5 -15t73.5 -23t64.5 -36.5t40 -55t16.5 -80.5q0 -56 -25.5 -98t-68 -65t-90.5 -34t-101 -11 q-100 0 -179 39.5t-117 122.5l76 39q27 -58 89 -88.5t132 -30.5q35 0 67 6t62 19.5t48 40t18 63.5q0 31 -15 54t-45.5 37t-62 22t-76.5 15q-48 7 -80.5 14.5t-70.5 22t-61 34t-38.5 51t-15.5 72.5q-1 52 23.5 92t65 62t86 33t93.5 11q89 0 155.5 -28t109.5 -101z" />
<glyph unicode="&#x161;" horiz-adv-x="499" d="M279 570h-49l-134 126v6h80l80 -75l81 75h79v-6zM35 82l-1 -2q75 -94 221 -94q88 0 147 39t60 110q1 29 -7.5 52.5t-25.5 38.5t-35 25.5t-45.5 17.5t-46.5 10t-48 7q-56 7 -89 23t-34 50q-1 35 33.5 54t88.5 18q86 0 140 -48l47 54q-73 66 -188 66q-51 1 -94.5 -13 t-74.5 -48t-31 -84q0 -38 17 -64.5t48 -41.5t61 -23t72 -13q65 -8 99.5 -25t33.5 -54q-1 -40 -39 -58t-86 -17q-114 0 -176 77z" />
<glyph unicode="&#x162;" horiz-adv-x="603" d="M258 1v619h-240v79h567v-79h-240v-620h-27l-11 -43q61 1 84.5 -30.5t13.5 -74.5q-8 -33 -34.5 -53t-60.5 -25q-40 -6 -78.5 8.5t-58.5 48.5l39 35q17 -25 48 -31t47 8q29 0 35 21q9 29 -20 45.5t-70 1.5l-17 13z" />
<glyph unicode="&#x163;" horiz-adv-x="398" d="M132 629l82 9v-145h153v-70h-154v-237q0 -60 15.5 -89t63.5 -29q32 0 69 17l24 -68q-50 -23 -96 -24q-11 0 -16 1l-12 -44q60 2 85 -27t15 -70q-9 -35 -40 -54t-71 -20q-37 -2 -71 12.5t-51 41.5l39 33q25 -31 71 -33q51 0 59 31q9 26 -19.5 40t-71.5 0l-14 13l25 88 q-47 17 -66 61.5t-19 119.5v237h-99v70h99v136z" />
<glyph unicode="&#x164;" horiz-adv-x="603" d="M133 900v7h85l86 -80l89 80h83v-7l-146 -134h-53zM257 619h-239v80h567v-80h-239v-619h-89v619z" />
<glyph unicode="&#x165;" horiz-adv-x="434" d="M202 638h-1v-145h110v-70h-110v-261q0 -46 18 -70t61 -24q33 0 69 18l25 -69q-50 -23 -97 -24q-156 -3 -156 169v261h-88v70h88v136zM397 636h78l-59 -166h-61z" />
<glyph unicode="&#x166;" horiz-adv-x="611" d="M142 368h119v251h-239v80h567v-80h-239v-251h122v-67h-122v-301h-89v301h-119v67z" />
<glyph unicode="&#x167;" horiz-adv-x="397" d="M56 306h76v117h-99v70h99v136l82 9v-145h153v-70h-154v-117h115v-60h-115v-84q0 -94 78 -94q33 0 69 18l24 -69q-50 -23 -96 -24q-156 -3 -156 169v84h-76v60z" />
<glyph unicode="&#x168;" horiz-adv-x="741" d="M238 805l-2 2q11 44 45 63.5t76 5.5q6 -2 28.5 -13t27.5 -12q40 -15 54 26l55 -22q-11 -49 -45.5 -67t-71.5 -4q-6 2 -28.5 13.5t-27.5 12.5q-42 15 -58 -29zM655 702l1 -1v-420q0 -139 -81.5 -215.5t-202.5 -76.5q-120 0 -203.5 76t-83.5 216v420h88v-420 q0 -100 57 -155t142 -55q84 0 139.5 56t55.5 155v420h88z" />
<glyph unicode="&#x169;" horiz-adv-x="608" d="M167 636l-1 1q11 43 45 62.5t75 4.5q6 -2 28.5 -13t27.5 -12q40 -13 54 26l55 -23q-11 -47 -45.5 -64.5t-71.5 -3.5q-5 2 -28 14t-28 13q-42 13 -58 -29zM458 1h1l-4 79q-63 -85 -172 -87q-96 0 -155.5 61.5t-59.5 167.5v273h82v-272q0 -72 40 -113t110 -41 q67 1 109.5 47t42.5 114v265h82v-494h-76z" />
<glyph unicode="&#x16a;" horiz-adv-x="741" d="M212 851h324v-70h-324v70zM655 700l1 -1v-420q0 -139 -81.5 -215.5t-202.5 -76.5q-120 0 -203.5 76t-83.5 216v420h88v-420q0 -100 57 -155t142 -55q84 0 139.5 56t55.5 155v420h88z" />
<glyph unicode="&#x16b;" horiz-adv-x="609" d="M151 700h305v-66h-305v66zM458 0h1l-4 79q-63 -85 -172 -87q-96 0 -155.5 61.5t-59.5 167.5v273h82v-272q0 -72 40 -113t110 -41q67 1 109.5 47t42.5 114v265h82v-494h-76z" />
<glyph unicode="&#x16c;" horiz-adv-x="741" d="M514 902h-1q3 -63 -36 -98.5t-101 -35.5t-101 35.5t-37 98.5h67q0 -30 17.5 -50.5t53.5 -20.5q35 0 52.5 20.5t17.5 50.5h68zM655 700l1 -1v-420q0 -139 -81.5 -215.5t-202.5 -76.5q-120 0 -203.5 76t-83.5 216v420h88v-420q0 -100 57 -155t142 -55q84 0 139.5 56 t55.5 155v420h88z" />
<glyph unicode="&#x16d;" horiz-adv-x="609" d="M444 697l-1 -1q3 -60 -36 -94t-99 -34q-61 0 -99.5 34.5t-35.5 94.5h66q0 -29 17.5 -48.5t52.5 -19.5t52 19.5t17 48.5h66zM458 -1h1l-4 79q-63 -85 -172 -87q-96 0 -155.5 61.5t-59.5 167.5v273h82v-272q0 -72 40 -113t110 -41q67 1 109.5 47t42.5 114v265h82v-494h-76z " />
<glyph unicode="&#x16e;" horiz-adv-x="741" d="M253 831v-1q0 45 34 71t81 26t81 -25.5t34 -71.5q0 -45 -33.5 -71t-81.5 -26q-49 0 -82 26t-33 72zM367 880h1q-36 0 -51 -25t0 -49.5t50 -24.5q37 0 52 24.5t-0.5 49.5t-51.5 25zM655 699l1 -1v-420q0 -139 -81.5 -215.5t-202.5 -76.5q-120 0 -203.5 76t-83.5 216v420 h88v-420q0 -100 57 -155t142 -55q84 0 139.5 56t55.5 155v420h88z" />
<glyph unicode="&#x16f;" horiz-adv-x="609" d="M194 640h-1q0 45 33 71t78 26t78.5 -26t33.5 -71t-32.5 -70.5t-79.5 -25.5t-78.5 25.5t-31.5 70.5zM302 690h1q-34 0 -48.5 -24t0 -48.5t48.5 -24.5q36 0 50.5 24.5t-1 48.5t-50.5 24zM458 0h1l-4 79q-63 -85 -172 -87q-96 0 -155.5 61.5t-59.5 167.5v273h82v-272 q0 -72 40 -113t110 -41q67 1 109.5 47t42.5 114v265h82v-494h-76z" />
<glyph unicode="&#x170;" horiz-adv-x="742" d="M325 894h89l-97 -121h-69zM472 893h90l-98 -120h-68zM569 700l-2 -1v-420q0 -99 -55.5 -154.5t-139.5 -55.5q-85 0 -142 55t-57 156v420h-88v-420q0 -94 41.5 -162t105.5 -99t141 -31q121 0 202.5 76.5t81.5 215.5v420h-88z" />
<glyph unicode="&#x171;" horiz-adv-x="608" d="M250 701h86v-2l-92 -112h-66zM391 701h86v-2l-93 -113h-66zM533 494l1 2h-82v-265q0 -68 -42.5 -114.5t-109.5 -47.5q-70 -1 -110 40t-40 113v272h-82v-273q0 -106 59.5 -167.5t154.5 -61.5q110 2 171 87l4 -79h76v494z" />
<glyph unicode="&#x172;" horiz-adv-x="742" d="M655 700h1v-420q0 -105 -47.5 -175t-126.5 -99q-27 -11 -37.5 -35t1.5 -45q16 -30 58 -28q49 2 80 42l49 -34q-17 -32 -51.5 -51t-74.5 -21q-81 -5 -115 46q-37 55 -8 108q-126 -4 -212.5 72.5t-86.5 218.5v420h88v-420q0 -100 57 -155t142 -55q84 0 139.5 56t55.5 155 v420h88z" />
<glyph unicode="&#x173;" horiz-adv-x="609" d="M534 -49l1 -1q-52 4 -84 -16.5t-21 -51.5q5 -14 21 -23.5t38 -8.5q44 2 73 39l45 -32q-34 -62 -116 -66q-45 -1 -78.5 18.5t-44.5 52.5q-12 37 11 76.5t81 49.5l-4 91q-63 -85 -173 -87q-96 0 -155.5 61.5t-59.5 167.5v273h82v-272q0 -72 40 -113t110 -41q67 1 109.5 47 t42.5 114v265h82v-543z" />
<glyph unicode="&#x174;" horiz-adv-x="1080" d="M365 785l149 133h54l149 -133v-7h-89l-88 78l-86 -78h-89v7zM27 700h98l193 -579l194 579h56l196 -579l191 579h99l-249 -701h-83l-100 279l-82 252l-81 -252l-100 -279h-82z" />
<glyph unicode="&#x175;" horiz-adv-x="839" d="M251 579l143 128h52l142 -128v-6h-84l-84 76l-84 -76h-85v6zM31 494h91l133 -407l131 407h67l131 -407l133 407h90l-173 -495h-94l-67 184l-53 180l-54 -180l-67 -184h-93z" />
<glyph unicode="&#x176;" horiz-adv-x="680" d="M169 784l144 129h52l144 -129v-6h-86l-84 76l-84 -76h-86v6zM294 284l-271 413v3h106l210 -332l215 332h106v-3l-276 -413v-284h-90v284z" />
<glyph unicode="&#x177;" horiz-adv-x="551" d="M109 578l141 129h51l141 -129v-6h-85l-82 75l-82 -75h-84v6zM228 7l-198 487h93l97 -257l53 -141l54 140l109 258h90l-312 -727h-89z" />
<glyph unicode="&#x178;" horiz-adv-x="680" d="M283 823q0 -31 -25 -44t-50.5 0t-25.5 44q0 24 16 37.5t34.5 13.5t34.5 -13.5t16 -37.5zM501 823q0 -31 -25 -44t-50.5 0t-25.5 44q0 24 16 37.5t34.5 13.5t34.5 -13.5t16 -37.5zM384 284l276 413v3h-106l-215 -332l-210 332h-106v-3l271 -413v-284h90v284z" />
<glyph unicode="&#x179;" horiz-adv-x="607" d="M249 784l74 127h101v-3l-100 -129h-75v5zM51 618h383l-404 -571v-47h538v86h-411l411 576v38h-517v-82z" />
<glyph unicode="&#x17a;" horiz-adv-x="471" d="M186 579v5l71 116h97v-3l-96 -118h-72zM48 419h263l-280 -387v-32h400v79h-274l274 378v37h-383v-75z" />
<glyph unicode="&#x17b;" horiz-adv-x="607" d="M259 835q0 34 27 47.5t54 0t27 -47.5t-27 -47.5t-54 0t-27 47.5zM51 618h383l-404 -571v-47h538v86h-411l411 576v38h-517v-82z" />
<glyph unicode="&#x17c;" horiz-adv-x="471" d="M302 647q0 -34 -27 -47.5t-54 0t-27 47.5t27 47.5t54 0t27 -47.5zM431 494v-37l-274 -378h274v-79h-400v32l280 387h-263v75h383z" />
<glyph unicode="&#x17d;" horiz-adv-x="607" d="M138 909v7h87l87 -80l90 80h84v-7l-148 -134h-53zM51 700h517v-38l-415 -578h415v-84h-538v47l407 572h-386v81z" />
<glyph unicode="&#x17e;" horiz-adv-x="471" d="M274 565h-50l-137 128v6h82l80 -75l84 75h80v-6zM48 494h383v-37l-278 -378h278v-79h-400v32l280 387h-263v75z" />
<glyph unicode="&#x17f;" horiz-adv-x="306" d="M129 0l1 -1v417h-97v72h97v39q0 85 44 132t122 47q59 0 112 -36l-34 -61q-42 25 -76 25q-87 0 -87 -107v-527h-82z" />
<glyph unicode="&#x192;" horiz-adv-x="448" d="M152 417l1 -1h-97v72h97v39q0 85 44 132t122 47q59 0 112 -36l-34 -61q-42 25 -76 25q-87 0 -87 -107v-39h155v-72h-155v-418q0 -86 -40.5 -133t-117.5 -47q-51 0 -103 35l33 60q32 -24 66 -24q80 0 80 110v418z" />
<glyph unicode="&#x1fa;" horiz-adv-x="760" d="M333 859l78 85h107v-3l-106 -86h-79v4zM439 676l-1 -2q48 22 48 73q0 40 -32 63.5t-76 23.5q-43 0 -75 -23t-32 -63q0 -52 49 -73l-303 -675h97l68 154h395l69 -154h97zM377 786q34 0 48.5 -21t0.5 -42t-49 -21q-34 0 -47.5 21t0 42t47.5 21zM379 603l161 -368h-323z" />
<glyph unicode="&#x1fb;" horiz-adv-x="636" d="M278 737l72 93h97v-2l-96 -94h-73v3zM211 621v-1q0 -41 29.5 -64.5t74.5 -23.5q44 0 74 23.5t30 65.5q0 41 -31 64.5t-73 23.5q-43 0 -73.5 -23.5t-30.5 -64.5zM314 664h-1q33 0 47 -22t0.5 -44.5t-46.5 -22.5t-46 22.5t0 44.5t46 22zM561 -1v2v494h-80l-1 -90 q-26 47 -75.5 72.5t-106.5 25.5q-109 0 -181.5 -69.5t-72.5 -186.5q0 -118 72 -188.5t181 -69.5q55 0 105 25.5t78 74.5l2 -90h79zM303 428l-1 1q49 0 87.5 -20t58.5 -52t29 -70.5t0 -77t-29 -70.5t-58 -52t-87 -20q-75 0 -126 50t-51 131t51 130.5t126 49.5z" />
<glyph unicode="&#x1fc;" horiz-adv-x="921" d="M463 784l75 128h100v-3l-100 -130h-75v5zM85 0l121 200h237v-200h424v85h-341v225h316v82h-316v225h332v83h-441l-434 -700h102zM444 604l-1 -70v-255h-188z" />
<glyph unicode="&#x1fd;" horiz-adv-x="1014" d="M466 585l69 119h95v-2l-94 -122h-70v5zM483 404l-1 2q-25 47 -75.5 72.5t-108.5 25.5q-109 0 -181.5 -69.5t-72.5 -186.5q0 -118 72 -188.5t181 -69.5q55 0 105.5 25.5t78.5 74.5v-90h64l2 84q58 -93 185 -93q61 0 119 23t93 65l-54 50q-24 -29 -68.5 -45.5t-88.5 -16.5 q-72 0 -121.5 40.5t-56.5 108.5h419q10 68 -6 124t-51 91.5t-82 54.5t-99 19q-124 0 -188 -96v85h-64zM555 286v1q10 69 58.5 108t115.5 39q74 0 119 -38.5t48 -109.5h-341zM303 430v1q50 0 89 -20t59 -52t29.5 -70.5t0 -77t-29.5 -70.5t-59 -52t-89 -20q-75 0 -126 50 t-51 131t51 130.5t126 49.5z" />
<glyph unicode="&#x1fe;" horiz-adv-x="810" d="M366 789l75 128h100v-3l-100 -129h-75v4zM193 49v1q-70 49 -106.5 128.5t-36.5 170.5q0 71 22.5 135.5t65.5 116t112 82t156 30.5q85 0 155 -32l47 82h88l-71 -119q66 -50 101 -128.5t35 -167.5q0 -70 -22.5 -134t-65 -115.5t-111.5 -82t-156 -30.5q-81 0 -148 27 l-52 -89h-86zM518 610q-50 22 -111 22q-131 0 -201 -83.5t-68 -200.5q0 -66 25.5 -125t73.5 -97zM301 87q48 -17 106 -17q129 0 198 82t69 196q0 142 -92 222z" />
<glyph unicode="&#x1ff;" horiz-adv-x="594" d="M259 585l67 115h91v-2l-90 -117h-68v4zM158 -59l1 -1l40 68q46 -17 99 -17q111 0 182 71.5t71 183.5q0 128 -91 203l57 97h-80l-37 -63q-48 20 -103 20q-110 0 -181.5 -72.5t-71.5 -184.5q0 -133 95 -204l-60 -101h79zM182 113v-1q-56 48 -56 133q0 79 48.5 130.5 t123.5 51.5q32 0 63 -13zM418 374h1q52 -52 52 -130t-48 -128t-124 -50q-34 0 -58 10z" />
<glyph unicode="&#x218;" horiz-adv-x="664" d="M526 550l1 -2q-53 86 -192 88q-74 0 -128 -30.5t-54 -89.5q0 -27 13.5 -46.5t43 -32t57.5 -19t74 -14.5q51 -8 83.5 -15t73.5 -23t64.5 -36.5t40 -55t16.5 -80.5q0 -56 -25.5 -98t-68 -65t-90.5 -34t-101 -11q-100 0 -179 39.5t-117 122.5l76 39q27 -58 89 -88.5 t132 -30.5q35 0 67 6t62 19.5t48 40t18 63.5q0 31 -15 54t-45.5 37t-62 22t-76.5 15q-48 7 -80.5 14.5t-70.5 22t-61 34t-38.5 51t-15.5 72.5q-1 52 23.5 92t65 62t86 33t93.5 11q89 0 155.5 -28t109.5 -101zM338 -183l-1 1q-34 8 -34 43q0 33 26.5 45.5t53 -1t26.5 -45.5 q0 -4 -6 -22l-17.5 -52.5t-19.5 -57.5h-54z" />
<glyph unicode="&#x219;" horiz-adv-x="499" d="M393 385l-1 -1q-53 48 -139 48q-54 1 -88.5 -18t-33.5 -54q1 -59 123 -73q35 -4 57.5 -8t54.5 -14.5t50.5 -25.5t32.5 -41.5t13 -61.5q-1 -71 -60 -110t-147 -39q-146 0 -221 94l47 57q62 -76 176 -76q49 0 86.5 18t38.5 59q1 37 -33.5 54t-99.5 25q-42 5 -72 13t-61 23 t-47.5 41.5t-16.5 64.5q0 50 31 84t74.5 48t94.5 13q115 0 188 -66zM246 -176v-1q-32 8 -32 42q0 31 25 43.5t50 -0.5t25 -44q0 -4 -6 -22t-17 -49.5t-18 -53.5h-51z" />
<glyph unicode="&#x21a;" horiz-adv-x="603" d="M257 619h-239v80h567v-80h-239v-619h-89v619zM284 -181l-1 1q-34 8 -34 44q0 33 26.5 45.5t53 -1t26.5 -46.5q0 -4 -6 -22l-17.5 -52.5t-19.5 -57.5h-54z" />
<glyph unicode="&#x21b;" horiz-adv-x="398" d="M214 638v-145h153v-70h-154v-261q0 -94 78 -94q33 0 69 18l24 -69q-50 -23 -96 -24q-156 -3 -156 169v261h-99v70h99v136zM235 -175v-2q-32 8 -32 42q0 31 25 43.5t50 -0.5t25 -43q0 -4 -6 -22t-17 -49.5t-18 -53.5h-52z" />
<glyph unicode="&#x237;" horiz-adv-x="232" d="M156 495l1 1v-560q1 -89 -33 -135.5t-113 -46.5q-51 0 -98 28l27 66q34 -19 67 -17q42 1 55 26.5t13 77.5v560h81z" />
<glyph unicode="&#x2c6;" horiz-adv-x="423" d="M174 707h53l144 -134v-7h-85l-86 79l-85 -79h-85v7z" />
<glyph unicode="&#x2c7;" horiz-adv-x="404" d="M27 694v7h85l86 -81l89 81h83v-7l-146 -135h-52z" />
<glyph unicode="&#x2d8;" horiz-adv-x="349" d="M304 700l-1 -3q3 -63 -36 -98.5t-101 -34.5q-62 0 -101 36t-36 99h66q0 -30 17.5 -50.5t53.5 -20.5q35 0 52.5 20.5t17.5 51.5h68z" />
<glyph unicode="&#x2d9;" horiz-adv-x="202" d="M36 655q0 34 27 47.5t54 -0.5t27 -48t-27 -47.5t-54 0.5t-27 48z" />
<glyph unicode="&#x2da;" horiz-adv-x="360" d="M47 609h1q0 50 34.5 79t82.5 29q47 0 82.5 -28.5t35.5 -78.5q0 -51 -34.5 -80t-84.5 -29t-83.5 28.5t-33.5 79.5zM165 664q-37 0 -52 -27.5t0 -55t52 -27.5q38 0 53.5 27.5t-0.5 55t-53 27.5z" />
<glyph unicode="&#x2db;" horiz-adv-x="393" d="M242 -58l-1 1q-53 10 -90 -12.5t-25 -57.5q13 -35 58 -33q44 2 73 38l46 -31q-34 -63 -116 -67q-45 -1 -78 18.5t-44 52.5q-4 17 -4.5 36.5t11 39t29 34t51 21t75.5 0.5z" />
<glyph unicode="&#x2dc;" horiz-adv-x="358" d="M30 659l-2 3q11 45 44.5 65.5t75.5 5.5q6 -2 29 -14t28 -13q40 -15 54 27l55 -23q-11 -49 -45.5 -67.5t-71.5 -3.5q-6 2 -28.5 13.5t-27.5 12.5q-42 15 -58 -30z" />
<glyph unicode="&#x2dd;" horiz-adv-x="389" d="M22 576l80 125h94v-2l-101 -123h-73zM176 575l80 126h94v-2l-102 -124h-72z" />
<glyph unicode="&#x326;" horiz-adv-x="0" d="M223 -179h1q-35 9 -35 45q0 33 26.5 46t53.5 -1t27 -47q0 -4 -6 -22t-18 -53t-20 -59h-55z" />
<glyph unicode="&#x394;" d="M679 0h-687l314 700h59zM335 602l-231 -530h463z" />
<glyph unicode="&#x3a9;" horiz-adv-x="817" d="M84 76h122q-76 45 -115 118t-39 161q0 98 41.5 178.5t123.5 130t191 49.5q163 0 260 -103.5t97 -254.5q0 -88 -39 -161t-115 -119h123v-76h-250v78q93 25 144 103t51 173q0 115 -70.5 196.5t-199.5 81.5t-199.5 -81.5t-70.5 -196.5q0 -95 51 -173t144 -102v-78h-250v76z " />
<glyph unicode="&#x3bc;" horiz-adv-x="607" d="M83 -221v1v705h85v-281q0 -70 45 -111t105 -41t102.5 42t42.5 122v268h86v-484h-77l-7 61q-21 -40 -62.5 -61t-86.5 -21q-114 0 -148 83v-283h-85z" />
<glyph unicode="&#x3c0;" horiz-adv-x="681" d="M143 0l-1 -1v423h-114v71h620v-71h-116v-274q0 -51 21 -73t75 -13l5 -65q-91 -17 -136.5 23.5t-44.5 127.5v275h-228v-423h-81z" />
<glyph unicode="&#x1e80;" horiz-adv-x="1080" d="M412 905v2h98l73 -124v-5h-74zM27 700h98l193 -579l194 579h56l196 -579l191 579h99l-249 -701h-83l-100 279l-82 252l-81 -252l-100 -279h-82z" />
<glyph unicode="&#x1e81;" horiz-adv-x="839" d="M303 697v3h93l68 -116v-5h-69zM31 494h91l133 -407l131 407h67l131 -407l133 407h90l-173 -495h-94l-67 184l-53 180l-54 -180l-67 -184h-93z" />
<glyph unicode="&#x1e82;" horiz-adv-x="1080" d="M497 784l71 118h95v-3l-94 -119h-72v4zM359 -1l100 279l81 252l82 -252l100 -279h83l249 701h-99l-191 -579l-196 579h-56l-194 -579l-193 579h-98l250 -701h82z" />
<glyph unicode="&#x1e83;" horiz-adv-x="839" d="M375 585l67 115h92v-3l-90 -116h-69v4zM299 -1l67 184l54 180l53 -180l67 -184h94l173 495h-90l-133 -407l-131 407h-67l-131 -407l-133 407h-91l175 -495h93z" />
<glyph unicode="&#x1e84;" horiz-adv-x="1080" d="M371 842q0 19 11 32t26.5 16t31.5 0t27 -16.5t11 -32.5q0 -32 -27 -45t-53.5 0.5t-26.5 45.5zM601 842q0 24 16.5 37.5t37 13.5t37 -13.5t16.5 -37.5t-16.5 -37.5t-37 -13.5t-37 13.5t-16.5 37.5zM359 0l100 279l81 252l82 -252l100 -279h83l249 701h-99l-191 -579 l-196 579h-56l-194 -579l-193 579h-98l250 -701h82z" />
<glyph unicode="&#x1e85;" horiz-adv-x="839" d="M264 656q0 24 15.5 37.5t34.5 13.5t34.5 -13.5t15.5 -37.5q0 -31 -25 -43.5t-50 0t-25 43.5zM479 655q0 19 10 32t24.5 16t29.5 0.5t25 -15.5t10 -32q0 -31 -25 -43.5t-49.5 0t-24.5 42.5zM299 -2l67 184l54 180l53 -180l67 -184h94l173 495h-90l-133 -407l-131 407h-67 l-131 -407l-133 407h-91l175 -495h93z" />
<glyph unicode="&#x1ef2;" horiz-adv-x="680" d="M219 899v2h96l70 -119v-5h-71zM294 284l-271 413v3h106l210 -332l215 332h106v-3l-276 -413v-284h-90v284z" />
<glyph unicode="&#x1ef3;" horiz-adv-x="551" d="M162 698v2h96l69 -112v-5h-71zM526 494l-312 -727h-89l103 240l-198 487h93l97 -257l53 -141l54 140l109 258h90z" />
<glyph unicode="&#x2013;" horiz-adv-x="602" d="M72 323h458v-77h-458v77z" />
<glyph unicode="&#x2014;" horiz-adv-x="704" d="M72 323h560v-77h-560v77z" />
<glyph unicode="&#x2018;" horiz-adv-x="235" d="M188 701l-46 -191h-88l67 191h67z" />
<glyph unicode="&#x2019;" horiz-adv-x="230" d="M56 506l47 195h88l-67 -195h-68z" />
<glyph unicode="&#x201a;" horiz-adv-x="242" d="M38 -115l46 194h88l-67 -194h-67z" />
<glyph unicode="&#x201c;" horiz-adv-x="380" d="M187 698l-47 -193h-88l68 193h67zM333 698l-48 -193h-88l68 193h68z" />
<glyph unicode="&#x201d;" horiz-adv-x="377" d="M58 511l47 190h88l-67 -190h-68zM204 511l46 190h88l-67 -190h-67z" />
<glyph unicode="&#x201e;" horiz-adv-x="387" d="M37 -115l47 194h88l-67 -194h-68zM183 -115l46 194h88l-67 -194h-67z" />
<glyph unicode="&#x2020;" horiz-adv-x="568" d="M534 432h-206v-557h-87v557h-207v75h207v193h87v-193h206v-75z" />
<glyph unicode="&#x2021;" horiz-adv-x="613" d="M557 433h-207v-253h207v-75h-207v-234h-87v234h-207v75h207v253h-207v75h207v192h87v-192h207v-75z" />
<glyph unicode="&#x2022;" horiz-adv-x="395" d="M198 171v1q-49 0 -80.5 30t-31.5 79t31.5 79.5t80.5 30.5q47 0 78.5 -31t31.5 -80t-31.5 -79t-78.5 -30z" />
<glyph unicode="&#x2026;" horiz-adv-x="633" d="M65 45q0 34 27 47.5t54 -0.5t27 -48t-27 -47.5t-54 0.5t-27 48zM263 45q0 34 27 47.5t54 -0.5t27 -48t-27 -47.5t-54 0.5t-27 48zM460 45q0 34 27 47.5t54 -0.5t27 -48t-27 -47.5t-54 0.5t-27 48z" />
<glyph unicode="&#x2030;" horiz-adv-x="1110" d="M196 709q60 0 101 -31.5t50.5 -76t0 -89t-50.5 -76t-101 -31.5q-43 0 -77 17t-51 43.5t-25.5 59t0 65t25.5 59t51 43.5t77 17zM553 702h94l-452 -702h-95zM196 644h-1q-55 0 -77.5 -43t0.5 -86.5t79 -43.5q33 0 55.5 18t27.5 43.5t0 50.5t-28 43t-56 18zM554 297h-1 q60 0 101 -31.5t50.5 -76t0 -89t-50.5 -76t-101 -31.5t-100.5 31.5t-50 76t0 89t50.5 76t101 31.5zM920 297h-1q60 0 101 -31.5t50.5 -76t0 -89t-50.5 -76t-101 -31.5t-100.5 31.5t-50 76t0 89t50.5 76t101 31.5zM552 233q-55 0 -77.5 -43.5t0 -87.5t77.5 -44q33 0 56 18 t28 43.5t-0.5 51.5t-28 44t-55.5 18zM919 233h1q-55 0 -77.5 -43.5t0 -87.5t77.5 -44t77.5 44t-0.5 87.5t-78 43.5z" />
<glyph unicode="&#x2039;" horiz-adv-x="316" d="M44 298l138 220h88l-137 -220l137 -221h-88z" />
<glyph unicode="&#x203a;" horiz-adv-x="318" d="M185 297l-137 220h88l138 -220l-138 -221h-88z" />
<glyph unicode="&#x2044;" horiz-adv-x="153" d="M-152 -3l379 708h77l-379 -708h-77z" />
<glyph unicode="&#x2070;" horiz-adv-x="389" d="M41 662v1q0 44 17 78.5t44 52t59.5 25.5t65.5 -0.5t60 -26t44 -52t17 -78.5v-53q0 -51 -22.5 -88.5t-57 -54.5t-74 -17t-74 17t-57 54.5t-22.5 88.5v53zM105 609q0 -46 27.5 -72t60 -26.5t60 26t27.5 72.5v54q0 38 -18 64t-43.5 32.5t-51.5 0t-44 -32.5t-18 -64v-54z" />
<glyph unicode="&#x2074;" horiz-adv-x="366" d="M285 817v-229h43v-59h-43v-72h-65v72h-192l-3 54l172 234h88zM220 588v166l-123 -166h123z" />
<glyph unicode="&#x2075;" horiz-adv-x="362" d="M181 686l1 -2q69 0 108 -30.5t38 -87.5q0 -56 -39.5 -87t-105.5 -31q-61 0 -102 25.5t-42 83.5h64q0 -50 78 -50q80 0 80 60q0 61 -80 61h-134v188h259v-58h-196v-72h71z" />
<glyph unicode="&#x2076;" horiz-adv-x="375" d="M112 649l-1 -1q29 29 82 29q62 0 104 -26.5t42 -88.5q0 -58 -43.5 -86.5t-102.5 -28.5q-60 0 -103 30t-43 87v139q0 58 41.5 87.5t100.5 29.5q61 0 101.5 -25t42.5 -74h-65q-5 41 -78 41q-78 0 -78 -59v-54zM193 503v-1q33 0 56.5 14.5t23.5 44.5t-23.5 45t-56.5 15 t-57.5 -15t-24.5 -44q0 -30 24 -44.5t58 -14.5z" />
<glyph unicode="&#x2077;" horiz-adv-x="317" d="M29 816h267l4 -28l-171 -332h-75l159 301h-184v59z" />
<glyph unicode="&#x2078;" horiz-adv-x="384" d="M38 552l2 1q0 30 19 53.5t49 32.5q-62 22 -62 78q0 52 43 78t102 26t102.5 -25.5t43.5 -78.5q0 -56 -60 -79q30 -9 49 -33.5t19 -53.5q0 -58 -45.5 -84t-108.5 -25q-63 0 -108 26t-45 84zM271 717v-1q0 26 -24 38.5t-54 12.5t-54.5 -12.5t-23.5 -37.5q0 -26 22 -38.5 t56 -12.5t56 12.5t22 38.5zM278 553v-2q0 27 -25.5 42.5t-59.5 15.5t-59.5 -14.5t-25.5 -42.5q0 -25 26 -39.5t59 -14.5t59 14.5t26 40.5z" />
<glyph unicode="&#x2079;" horiz-adv-x="377" d="M328 565l2 -1q0 -58 -42 -87.5t-101 -29.5q-61 0 -101.5 25t-42.5 74h65q5 -41 78 -41q78 0 78 59v55q-29 -29 -82 -29q-62 0 -104 26.5t-42 89.5q0 58 43.5 86.5t102.5 28.5q60 0 103 -29.5t43 -86.5v-140zM183 763q-33 0 -56.5 -14t-23.5 -44t23.5 -45t56.5 -15 t57.5 15t24.5 44q0 30 -24 44.5t-58 14.5z" />
<glyph unicode="&#x2080;" horiz-adv-x="389" d="M41 122q0 51 22.5 88.5t57 54t74 16.5t74 -17t57 -54t22.5 -88v-53q0 -51 -22.5 -88.5t-57 -54t-74 -16.5t-74 16.5t-57 54t-22.5 88.5v53zM105 68q0 -46 27.5 -72t60 -26.5t60 26t27.5 72.5v53q0 38 -18 64t-43.5 32.5t-51.5 0t-44 -32.5t-18 -64v-53z" />
<glyph unicode="&#x2081;" horiz-adv-x="256" d="M37 -28h63v229l-54 -13v58l120 29v-303h64v-58h-193v58z" />
<glyph unicode="&#x2082;" horiz-adv-x="363" d="M41 172h2q0 57 40.5 83.5t97.5 26.5q62 0 102 -26.5t40 -85.5q0 -33 -12.5 -56t-35.5 -33.5t-41 -15t-44 -6.5q-84 -7 -84 -57v-21h212v-65h-279v87q0 53 37 78.5t93 29.5q87 7 87 59q0 54 -76 54q-73 0 -74 -52h-65z" />
<glyph unicode="&#x2083;" horiz-adv-x="366" d="M104 19l-1 3q5 -51 77 -51q31 0 55 12t24 41q0 20 -19 36t-58 16h-55v53h51q74 0 75 48q0 18 -18.5 33.5t-55.5 15.5q-73 0 -78 -52h-59q0 54 40.5 80.5t96.5 26.5q57 0 98 -27t41 -78q0 -27 -14.5 -47.5t-38.5 -27.5q29 -8 45.5 -30.5t16.5 -47.5q0 -60 -43.5 -87 t-105.5 -27q-59 0 -100 27t-42 83h68z" />
<glyph unicode="&#x2084;" horiz-adv-x="365" d="M285 275v-230h42v-59h-42v-72h-65v72h-192l-3 55l172 234h88zM220 45v167l-123 -167h123z" />
<glyph unicode="&#x2085;" horiz-adv-x="362" d="M181 145l1 -1q69 0 108 -30.5t38 -88.5q0 -55 -39.5 -86.5t-105.5 -31.5q-61 0 -102 26t-42 84h64q0 -50 78 -50q80 0 80 59q0 61 -80 61h-134v189h259v-58h-196v-73h71z" />
<glyph unicode="&#x2086;" horiz-adv-x="375" d="M112 110l-1 -1q29 29 82 29q62 0 104 -26.5t42 -88.5q0 -58 -43.5 -86.5t-102.5 -28.5q-60 0 -103 30t-43 87v139q0 58 41.5 87.5t100.5 29.5q61 0 101.5 -25t42.5 -74h-65q-5 41 -78 41q-78 0 -78 -59v-54zM193 -36v-1q33 0 56.5 14.5t23.5 44.5t-23.5 45t-56.5 15 t-57.5 -15t-24.5 -44q0 -30 24 -44.5t58 -14.5z" />
<glyph unicode="&#x2087;" horiz-adv-x="315" d="M28 275h267l4 -28l-171 -333h-75l159 302h-184v59z" />
<glyph unicode="&#x2088;" horiz-adv-x="385" d="M39 18h1q0 30 19 53.5t50 32.5q-62 22 -62 79q0 52 43 78t102 26t102.5 -25.5t43.5 -78.5q0 -56 -60 -78q30 -9 49 -33.5t19 -53.5q0 -58 -45 -84t-109 -26q-63 0 -108 26t-45 84zM271 181q0 26 -24 38.5t-54 12.5q-31 0 -55 -12.5t-23 -38.5q0 -26 22 -38.5t56 -12.5 t56 12.5t22 38.5zM278 18q0 27 -25.5 42.5t-59.5 15.5t-59.5 -14.5t-25.5 -43.5q0 -25 26 -39.5t59 -14.5t59 14.5t26 39.5z" />
<glyph unicode="&#x2089;" horiz-adv-x="374" d="M328 25l1 1q0 -58 -41.5 -87.5t-100.5 -29.5q-61 0 -101.5 25t-42.5 74h65q5 -41 78 -41q78 0 78 59v54q-29 -29 -82 -29q-62 0 -104 26.5t-42 88.5q0 58 43.5 86.5t102.5 28.5q60 0 103 -30t43 -87v-139zM182 225v1q-33 0 -56.5 -14.5t-23.5 -44.5t23.5 -45t56.5 -15 t57.5 15t24.5 44q0 30 -24 44.5t-58 14.5z" />
<glyph unicode="&#x20ac;" horiz-adv-x="613" d="M576 8v-3q-60 -20 -123 -20q-149 0 -233.5 69.5t-110.5 193.5h-66v69h56q-1 4 -1 27q0 21 1 31h-57v70h67q24 119 111 192t232 73q50 0 104 -16l-25 -77q-37 10 -77 10q-203 0 -252 -182h253l-17 -70h-253q-1 -9 -1 -29q0 -19 1 -26h238l-15 -69h-207q44 -179 253 -179 q50 0 98 18z" />
<glyph unicode="&#x2113;" horiz-adv-x="401" d="M203 147q0 -44 37 -61.5t93 -4.5v-69q-101 -33 -166 2t-65 149l-49 -24l-14 46q34 14 62 30v333q0 91 34 129t122 38q135 0 110 -193q-17 -146 -164 -280v-95zM200 548q0 -26 -0.5 -112.5t-0.5 -124.5q107 123 120 220q2 28 4 57t-14 52t-50 23q-28 0 -43.5 -34.5 t-15.5 -80.5z" />
<glyph unicode="&#x2117;" horiz-adv-x="828" d="M414 714q168 0 264.5 -104.5t96.5 -260.5q0 -155 -96.5 -260t-264.5 -105q-167 0 -264 105t-97 260q0 156 97 260.5t264 104.5zM129 349v2q0 -129 76.5 -213.5t208.5 -84.5t209 84.5t77 212.5q0 129 -76.5 213.5t-209.5 84.5t-209 -84.5t-76 -214.5zM461 275l-1 -1 q37 0 66 14t43.5 37t21 50t-0.5 54.5t-22 50.5t-43 37t-63 14h-173v-376h70v120h102zM358 466v-1h103q41 0 57 -32.5t-1 -65.5t-58 -33h-101v132z" />
<glyph unicode="&#x2122;" horiz-adv-x="804" d="M387 701h70l98 -125l100 125h68v-286h-70l3 188l-95 -120h-14l-93 123l3 -191h-70v286zM169 642h-105v58h279v-58h-106v-227h-68v227z" />
<glyph unicode="&#x212e;" horiz-adv-x="642" d="M556 104q-43 -61 -98 -86t-129 -25q-116 0 -192 78t-76 218q0 142 75.5 219.5t191.5 77.5q58 0 106.5 -17t87 -53t57 -100.5t11.5 -152.5h-402v-170q58 -53 141 -53q125 0 190 93zM471 496q-55 43 -143 43q-87 0 -140 -46v-183h283v186z" />
<glyph unicode="&#x2153;" horiz-adv-x="760" d="M49 404h63v229l-54 -13v58l120 29v-303h64v-57h-193v57zM198 -3h-74l378 708h76zM500 106h1q5 -50 77 -50q79 0 79 53q0 20 -19 36t-58 16h-56v54h52q74 0 74 48q0 18 -19 33.5t-56 15.5q-73 0 -78 -52h-58q0 54 40.5 80.5t96.5 26.5q57 0 98 -27t41 -78q0 -27 -14 -48 t-39 -28q29 -8 45.5 -30.5t16.5 -46.5q0 -60 -43.5 -87t-105.5 -27q-59 0 -100 27t-42 84h67z" />
<glyph unicode="&#x2154;" horiz-adv-x="839" d="M49 599h3q0 57 40.5 83.5t97.5 26.5q62 0 102 -26.5t40 -85.5q0 -27 -9.5 -47.5t-22 -32t-33.5 -18.5t-35 -9.5t-35 -4.5q-82 -7 -82 -57v-22h208v-64h-274v87q0 52 35.5 78t89.5 30q44 4 67 17t23 43q0 54 -76 54q-73 0 -74 -52h-65zM582 705h76l-380 -708h-75zM603 161 h-1v54h51q74 0 75 48q0 18 -18.5 33.5t-55.5 15.5q-73 0 -78 -52h-59q0 54 40.5 80.5t96.5 26.5q57 0 98 -27t41 -78q0 -27 -14 -48t-39 -28q29 -8 45.5 -30.5t16.5 -46.5q0 -60 -43.5 -87t-105.5 -27q-59 0 -100 27t-42 84h68q5 -50 77 -50q79 0 79 53q0 20 -19 36t-58 16 h-55z" />
<glyph unicode="&#x215b;" horiz-adv-x="785" d="M49 404h63v229l-54 -13v58l120 29v-303h64v-57h-193v57zM124 -3l378 708h76l-380 -708h-74zM440 102h1q0 30 19 53.5t50 32.5q-62 22 -62 79q0 52 43 78t102 26t102.5 -25.5t43.5 -78.5q0 -56 -60 -78q30 -9 49 -33.5t19 -53.5q0 -58 -45 -84t-109 -26q-63 0 -108 26 t-45 84zM672 265q0 26 -24 38.5t-54 12.5q-31 0 -55 -12.5t-23 -38.5q0 -26 22 -38.5t56 -12.5t56 12.5t22 38.5zM679 102q0 27 -25.5 42.5t-59.5 15.5t-59.5 -14.5t-25.5 -43.5q0 -25 26 -39.5t59 -14.5t59 14.5t26 39.5z" />
<glyph unicode="&#x215c;" horiz-adv-x="845" d="M133 500h-2v54h52q74 0 74 48q0 18 -18.5 33.5t-55.5 15.5q-73 0 -77 -52h-59q0 54 40.5 80.5t96.5 26.5q57 0 98 -27t42 -78q0 -27 -14 -48t-39 -28q29 -8 45.5 -30.5t16.5 -46.5q0 -60 -43.5 -87t-105.5 -27q-59 0 -100 27t-42 84h68q5 -50 77 -50q79 0 79 53 q0 20 -19 36t-58 16h-56zM567 705h76l-380 -708h-74zM500 102h1q0 30 19 53.5t50 32.5q-62 22 -62 79q0 52 43 78t102 26t102.5 -25.5t43.5 -78.5q0 -56 -60 -78q30 -9 49 -33.5t19 -53.5q0 -58 -45 -84t-109 -26q-63 0 -108 26t-45 84zM732 265q0 26 -24 38.5t-54 12.5 q-31 0 -55 -12.5t-23 -38.5q0 -26 22 -38.5t56 -12.5t56 12.5t22 38.5zM739 102q0 27 -25.5 42.5t-59.5 15.5t-59.5 -14.5t-25.5 -43.5q0 -25 26 -39.5t59 -14.5t59 14.5t26 39.5z" />
<glyph unicode="&#x215d;" horiz-adv-x="847" d="M191 -3l378 708h76l-380 -708h-74zM52 513v188h258v-58h-195v-73h70q69 0 108 -30.5t39 -88.5q0 -55 -39 -86.5t-105 -31.5q-61 0 -102 26t-42 84h64q0 -50 78 -50q80 0 80 59q0 61 -81 61h-133zM502 102h1q0 30 19 53.5t50 32.5q-62 22 -62 79q0 52 43 78t102 26 t102.5 -25.5t43.5 -78.5q0 -56 -60 -78q30 -9 49 -33.5t19 -53.5q0 -58 -45 -84t-109 -26q-63 0 -108 26t-45 84zM734 265q0 26 -24 38.5t-54 12.5q-31 0 -55 -12.5t-23 -38.5q0 -26 22 -38.5t56 -12.5t56 12.5t22 38.5zM741 102q0 27 -25.5 42.5t-59.5 15.5t-59.5 -14.5 t-25.5 -43.5q0 -25 26 -39.5t59 -14.5t59 14.5t26 39.5z" />
<glyph unicode="&#x215e;" horiz-adv-x="764" d="M482 705h76l-380 -708h-74zM223 642h-184v59h267l4 -29l-171 -332h-75zM420 102h2q0 30 19 53.5t50 32.5q-62 22 -62 79q0 52 42.5 78t101.5 26t102.5 -25.5t43.5 -78.5q0 -57 -61 -78q30 -9 49 -33.5t19 -53.5q0 -58 -45 -84t-109 -26q-40 0 -72.5 9.5t-56 35 t-23.5 65.5zM653 265q0 26 -24.5 38.5t-54.5 12.5t-54.5 -12.5t-24.5 -38.5t22 -38.5t57 -12.5q34 0 56 12.5t23 38.5zM659 102q0 27 -25.5 42.5t-59.5 15.5t-59.5 -14.5t-25.5 -43.5q0 -25 26 -39.5t59 -14.5t59 14.5t26 39.5z" />
<glyph unicode="&#x2190;" horiz-adv-x="628" d="M35 351l222 221l45 -43l-140 -141h407v-76h-407l138 -143l-43 -40z" />
<glyph unicode="&#x2191;" horiz-adv-x="510" d="M256 622l221 -223l-42 -44l-142 139v-406h-76v406l-143 -138l-40 44z" />
<glyph unicode="&#x2192;" horiz-adv-x="628" d="M593 351l-222 -222l-45 43l139 142h-406v76h406l-137 142l43 41z" />
<glyph unicode="&#x2193;" horiz-adv-x="508" d="M254 75l-222 222l43 45l142 -139v406h76v-406l142 137l41 -43z" />
<glyph unicode="&#x2196;" horiz-adv-x="506" d="M65 539h315l1 -64h-199l288 -288l-54 -54l-287 288l-4 -198l-60 2v314z" />
<glyph unicode="&#x2197;" horiz-adv-x="507" d="M441 224l-64 -1v198l-287 -288l-54 54l288 288l-198 3l1 60h314v-314z" />
<glyph unicode="&#x2198;" horiz-adv-x="549" d="M449 159h-314l-2 60l199 4l-288 287l54 54l288 -287v198l63 -1v-315z" />
<glyph unicode="&#x2199;" horiz-adv-x="549" d="M100 474l64 1v-198l287 287l54 -54l-288 -287l199 -4l-2 -60h-314v315z" />
<glyph unicode="&#x2202;" horiz-adv-x="601" d="M299 64q80 0 125 52t45 123t-45 122.5t-125 51.5q-81 0 -126 -51.5t-45 -122.5t45 -123t126 -52zM273 483q47 3 98 -12t84 -52q-25 73 -110 133.5t-168 79.5l18 67q174 -43 265.5 -156.5t92.5 -290.5q1 -117 -68 -189.5t-186 -72.5q-121 0 -188 73.5t-67 174.5 q0 95 60 166.5t169 78.5z" />
<glyph unicode="&#x2206;" horiz-adv-x="780" d="M753 0h-726l314 700h98zM159 80h461l-230 526z" />
<glyph unicode="&#x220f;" horiz-adv-x="686" d="M506 -189v807h-326v-807h-89v889h504v-889h-89z" />
<glyph unicode="&#x2211;" horiz-adv-x="585" d="M163 86h369v-86h-494v47l222 320l-207 295v38h473v-82h-340l173 -253z" />
<glyph unicode="&#x2212;" horiz-adv-x="529" d="M73 357h383v-79h-383v79z" />
<glyph unicode="&#x2215;" horiz-adv-x="446" d="M-6 -3l379 708h77l-379 -708h-77z" />
<glyph unicode="&#x2219;" horiz-adv-x="250" d="M69 312q0 21 11.5 35.5t28 18t33 0t28 -17.5t11.5 -35q0 -35 -28 -49.5t-56 0t-28 48.5z" />
<glyph unicode="&#x221a;" horiz-adv-x="616" d="M367 0h-70l-166 344l-88 -38l-24 57l166 74l151 -340l210 617l57 -16z" />
<glyph unicode="&#x221e;" horiz-adv-x="784" d="M220 166q-78 1 -121.5 47.5t-42.5 110.5q0 65 45 112t124 47t167 -108q92 108 166 108q80 0 125 -47t45 -112q1 -64 -42.5 -110.5t-121.5 -47.5q-82 0 -172 107q-42 -50 -82.5 -78.5t-89.5 -28.5zM222 234q23 0 46.5 12.5t35.5 24t35 35.5q12 14 16 18l-13 16 q-21 24 -35 38t-37.5 26.5t-47.5 12.5q-50 0 -76.5 -30t-23.5 -69q2 -35 28 -59t72 -25zM562 234q49 1 75 28t26 64q-1 37 -27.5 64t-73.5 27q-24 0 -48 -14t-35 -25.5t-36 -39.5l-13 -14l15 -15h-1l10 -10l11 -11t10 -10.5t11 -10.5t11 -8.5t12 -8t12 -6.5t13 -5.5t13.5 -3 t14.5 -1.5z" />
<glyph unicode="&#x222b;" horiz-adv-x="467" d="M184 528l1 -1q0 85 44 132t122 47q59 0 112 -36l-34 -61q-42 25 -76 25q-87 0 -87 -107v-529q0 -86 -40.5 -133t-117.5 -47q-51 0 -103 35l33 60q32 -24 66 -24q80 0 80 110v529z" />
<glyph unicode="&#x2248;" horiz-adv-x="570" d="M129 337l-54 31q21 45 61.5 66t85.5 10l142 -47q33 -9 48.5 -0.5t31.5 37.5l53 -25q-46 -109 -146 -75l-136 42q-26 10 -50 -1.5t-36 -37.5zM129 158l-54 31q21 45 61 66t85 10l142 -47q33 -9 49 -0.5t32 37.5l53 -25q-47 -109 -147 -75l-136 42q-26 10 -50 -1.5 t-35 -37.5z" />
<glyph unicode="&#x2260;" horiz-adv-x="554" d="M69 247h144l81 134h-225v77h271l44 73l39 -22l-31 -51h91v-77h-136l-81 -134h217v-77h-262l-45 -75l-40 23l31 52h-98v77z" />
<glyph unicode="&#x2264;" horiz-adv-x="451" d="M318 612l44 -53l-195 -139l197 -145l-47 -52l-241 184v27zM70 160h310v-69h-310v69z" />
<glyph unicode="&#x2265;" horiz-adv-x="451" d="M375 434v-27l-241 -184l-47 52l197 145l-195 139l45 53zM382 91h-311v69h311v-69z" />
<glyph unicode="&#x25ca;" horiz-adv-x="571" d="M318 7h-67l-215 345l215 344h67l218 -344zM128 351l156 -266l163 266l-163 266z" />
<glyph unicode="&#x25fc;" horiz-adv-x="495" d="M0 495h495v-495h-495v495z" />
<glyph unicode="&#xfb01;" horiz-adv-x="590" d="M385 684l-1 1q-43 23 -89 23q-78 0 -122 -47.5t-44 -132.5v-39h-97v-71h97v-417h82v417h150v71h-150v39q0 107 87 107q31 0 60 -16zM422 646q0 34 27 47.5t54 -0.5t27 -48t-27 -47.5t-54 0.5t-27 48zM435 497v-496h82v496h-82z" />
<glyph unicode="&#xfb02;" horiz-adv-x="588" d="M358 621h-1q-27 15 -59 15q-87 0 -87 -108v-39h144v-72h-144v-416h-82v416h-97v72h97v39q0 85 44 132t122 47q45 0 85 -21zM507 700v-700h-82v700h82z" />
<glyph horiz-adv-x="557" d="M414 78l-1 1q-30 -43 -79 -65t-103 -22q-82 0 -139 41.5t-57 122.5q0 78 58 118.5t140 39.5q101 0 174 -41v39q0 62 -45.5 90t-114.5 28q-83 0 -161 -37l-15 69q94 42 177 42q109 0 174 -45.5t65 -147.5v-311h-69zM409 203q-32 19 -78.5 30.5t-85.5 11.5q-54 0 -91.5 -22 t-37.5 -69q0 -46 39 -68.5t88 -22.5q65 0 114.5 39t51.5 101z" />
<glyph horiz-adv-x="557" d="M218 580v5l68 119h99v-3l-93 -121h-74zM414 78l-1 1q-30 -43 -79 -65t-103 -22q-82 0 -139 41.5t-57 122.5q0 78 58 118.5t140 39.5q101 0 174 -41v39q0 62 -45.5 90t-114.5 28q-83 0 -161 -37l-15 69q94 42 177 42q109 0 174 -45.5t65 -147.5v-311h-69zM409 203 q-32 19 -78.5 30.5t-85.5 11.5q-54 0 -91.5 -22t-37.5 -69q0 -46 39 -68.5t88 -22.5q65 0 114.5 39t51.5 101z" />
<glyph horiz-adv-x="557" d="M412 705h-1q3 -63 -36 -98.5t-101 -35.5t-101 35.5t-36 98.5h66q0 -30 17.5 -50.5t53.5 -20.5q35 0 52.5 20.5t17.5 50.5h68zM414 78l-1 1q-30 -43 -79 -65t-103 -22q-82 0 -139 41.5t-57 122.5q0 78 58 118.5t140 39.5q101 0 174 -41v39q0 62 -45.5 90t-114.5 28 q-83 0 -161 -37l-15 69q94 42 177 42q109 0 174 -45.5t65 -147.5v-311h-69zM409 203q-32 19 -78.5 30.5t-85.5 11.5q-54 0 -91.5 -22t-37.5 -69q0 -46 39 -68.5t88 -22.5q65 0 114.5 39t51.5 101z" />
<glyph horiz-adv-x="557" d="M105 576l142 132h51l142 -132v-7h-83l-84 78l-84 -78h-84v7zM414 78l-1 1q-30 -43 -79 -65t-103 -22q-82 0 -139 41.5t-57 122.5q0 78 58 118.5t140 39.5q101 0 174 -41v39q0 62 -45.5 90t-114.5 28q-83 0 -161 -37l-15 69q94 42 177 42q109 0 174 -45.5t65 -147.5v-311 h-69zM409 203q-32 19 -78.5 30.5t-85.5 11.5q-54 0 -91.5 -22t-37.5 -69q0 -46 39 -68.5t88 -22.5q65 0 114.5 39t51.5 101z" />
<glyph horiz-adv-x="557" d="M123 655q0 33 26.5 47t53.5 0.5t27 -46.5t-26.5 -46.5t-53.5 -0.5t-27 46zM332 655q0 25 16.5 39.5t37 14.5t37 -14.5t16.5 -39.5q0 -33 -26.5 -46.5t-53.5 0t-27 46.5zM414 78l-1 1q-30 -43 -79 -65t-103 -22q-82 0 -139 41.5t-57 122.5q0 78 58 118.5t140 39.5 q101 0 174 -41v39q0 62 -45.5 90t-114.5 28q-83 0 -161 -37l-15 69q94 42 177 42q109 0 174 -45.5t65 -147.5v-311h-69zM409 203q-32 19 -78.5 30.5t-85.5 11.5q-54 0 -91.5 -22t-37.5 -69q0 -46 39 -68.5t88 -22.5q65 0 114.5 39t51.5 101z" />
<glyph horiz-adv-x="557" d="M163 701v3h98l68 -119v-5h-73zM414 78l-1 1q-30 -43 -79 -65t-103 -22q-82 0 -139 41.5t-57 122.5q0 78 58 118.5t140 39.5q101 0 174 -41v39q0 62 -45.5 90t-114.5 28q-83 0 -161 -37l-15 69q94 42 177 42q109 0 174 -45.5t65 -147.5v-311h-69zM409 203 q-32 19 -78.5 30.5t-85.5 11.5q-54 0 -91.5 -22t-37.5 -69q0 -46 39 -68.5t88 -22.5q65 0 114.5 39t51.5 101z" />
<glyph horiz-adv-x="557" d="M112 687h317v-69h-317v69zM414 78l-1 1q-30 -43 -79 -65t-103 -22q-82 0 -139 41.5t-57 122.5q0 78 58 118.5t140 39.5q101 0 174 -41v39q0 62 -45.5 90t-114.5 28q-83 0 -161 -37l-15 69q94 42 177 42q109 0 174 -45.5t65 -147.5v-311h-69zM409 203q-32 19 -78.5 30.5 t-85.5 11.5q-54 0 -91.5 -22t-37.5 -69q0 -46 39 -68.5t88 -22.5q65 0 114.5 39t51.5 101z" />
<glyph horiz-adv-x="557" d="M73 460h-1q94 42 176 42q239 0 239 -192v-352q-48 6 -81.5 -13.5t-25.5 -48.5q3 -14 17.5 -23.5t36.5 -9.5q46 0 77 38l45 -31q-17 -31 -49.5 -48t-70.5 -18q-46 -1 -78.5 19.5t-40.5 54.5q-8 35 18 73t84 47l-3 80q-29 -42 -79 -64t-105 -22q-82 0 -139 40t-57 121 q0 78 58 119.5t140 40.5q100 0 173 -41v39q0 62 -45 90t-114 28q-83 0 -161 -37zM407 202q-69 41 -162 41q-54 0 -92 -22t-38 -68q1 -46 40 -68.5t88 -22.5q65 0 113.5 39t50.5 101z" />
<glyph horiz-adv-x="557" d="M164 655h1q0 45 33 70.5t79 25.5q45 0 78 -25.5t33 -70.5t-32.5 -70.5t-80.5 -25.5t-79.5 25.5t-31.5 70.5zM275 705h2q-35 0 -49.5 -24.5t0 -48.5t48.5 -24q22 0 36.5 10t17.5 24t-0.5 28.5t-18.5 24.5t-36 10zM414 78l-1 1q-30 -43 -79 -65t-103 -22q-82 0 -139 41.5 t-57 122.5q0 78 58 118.5t140 39.5q101 0 174 -41v39q0 62 -45.5 90t-114.5 28q-83 0 -161 -37l-15 69q94 42 177 42q109 0 174 -45.5t65 -147.5v-311h-69zM409 203q-32 19 -78.5 30.5t-85.5 11.5q-54 0 -91.5 -22t-37.5 -69q0 -46 39 -68.5t88 -22.5q65 0 114.5 39 t51.5 101z" />
<glyph horiz-adv-x="557" d="M234 746l72 93h97v-2l-96 -94h-73v3zM167 630v-2q0 -41 29.5 -64.5t74.5 -23.5q44 0 74 23.5t30 65.5q0 41 -31 64.5t-73 23.5q-43 0 -73.5 -23t-30.5 -64zM270 672h-1q33 0 47 -22t0.5 -44.5t-46.5 -22.5t-46 22.5t0 44.5t46 22zM414 78l-1 1q-30 -43 -79 -65t-103 -22 q-82 0 -139 41.5t-57 122.5q0 78 58 118.5t140 39.5q101 0 174 -41v39q0 62 -45.5 90t-114.5 28q-83 0 -161 -37l-15 69q94 42 177 42q109 0 174 -45.5t65 -147.5v-311h-69zM409 203q-32 19 -78.5 30.5t-85.5 11.5q-54 0 -91.5 -22t-37.5 -69q0 -46 39 -68.5t88 -22.5 q65 0 114.5 39t51.5 101z" />
<glyph horiz-adv-x="557" d="M123 629l2 1q11 45 47 65t78 5q6 -2 28.5 -13.5t27.5 -12.5q40 -13 55 29l54 -23q-11 -49 -45 -67t-72 -4q-6 1 -29.5 13t-29.5 13q-45 17 -63 -30zM414 78l-1 1q-30 -43 -79 -65t-103 -22q-82 0 -139 41.5t-57 122.5q0 78 58 118.5t140 39.5q101 0 174 -41v39 q0 62 -45.5 90t-114.5 28q-83 0 -161 -37l-15 69q94 42 177 42q109 0 174 -45.5t65 -147.5v-311h-69zM409 203q-32 19 -78.5 30.5t-85.5 11.5q-54 0 -91.5 -22t-37.5 -69q0 -46 39 -68.5t88 -22.5q65 0 114.5 39t51.5 101z" />
<glyph horiz-adv-x="637" d="M562 -10v-2q0 -122 -71 -183.5t-176 -61.5q-111 0 -176 49t-67 137h80q4 -54 48.5 -82t115.5 -28q70 0 117.5 42.5t47.5 126.5v100q-28 -49 -78.5 -74.5t-105.5 -25.5q-109 0 -181 70.5t-72 188.5q0 117 72.5 186.5t181.5 68.5q57 0 107.5 -25.5t76.5 -72.5l2 90h78v-504 zM304 425l-1 -1q-75 0 -126 -49.5t-51 -130.5t51 -131t126 -50q49 0 87.5 20t58.5 52t29 70.5t0 77t-29 70.5t-58 52t-87 20z" />
<glyph horiz-adv-x="637" d="M450 708l-1 -1q3 -62 -36 -97.5t-101 -35.5t-101 35.5t-36 97.5h66q0 -31 17.5 -51t54.5 -20q35 0 52.5 20.5t17.5 51.5h67zM562 -11v-2q0 -122 -71 -183.5t-176 -61.5q-111 0 -176 49t-67 137h80q4 -54 48.5 -82t115.5 -28q70 0 117.5 42.5t47.5 126.5v100 q-28 -49 -78.5 -74.5t-105.5 -25.5q-109 0 -181 70.5t-72 188.5q0 117 72.5 186.5t181.5 68.5q57 0 107.5 -25.5t76.5 -72.5l2 90h78v-504zM304 424l-1 -1q-75 0 -126 -49.5t-51 -130.5t51 -131t126 -50q49 0 87.5 20t58.5 52t29 70.5t0 77t-29 70.5t-58 52t-87 20z" />
<glyph horiz-adv-x="638" d="M297 717h53l144 -135v-6h-84l-87 80l-86 -80h-84v6zM485 494l-3 2l-2 -90q-25 47 -75 72.5t-107 25.5q-109 0 -181.5 -69.5t-72.5 -186.5q0 -118 72 -188.5t180 -69.5q55 0 105.5 25.5t78.5 74.5v-100q0 -84 -47.5 -126.5t-117.5 -42.5t-114 28t-48 82h-80q2 -88 67 -137 t176 -49q105 0 176 61.5t71 183.5v504h-78zM125 249l-1 1q0 81 51 130.5t126 49.5q49 0 87.5 -20t58.5 -52t29 -70.5t0 -77t-29 -70.5t-58 -52t-87 -20q-75 0 -126 50t-51 131z" />
<glyph horiz-adv-x="635" d="M334 671h-1q35 -9 35 -44q0 -33 -27 -46t-53.5 0.5t-26.5 46.5q0 4 5.5 18.5t16 43.5t19.5 55h55zM73 -69l-3 2q2 -88 67 -137t176 -49q105 0 176 61.5t71 183.5v504h-78l-2 -90q-25 47 -75 72.5t-107 25.5q-109 0 -181.5 -69.5t-72.5 -186.5q0 -118 72 -188.5t180 -69.5 q55 0 105.5 25.5t78.5 74.5v-100q0 -84 -47.5 -126.5t-117.5 -42.5t-114 28t-48 82h-80zM301 429l-1 1q49 0 87.5 -20t58.5 -52t29 -70.5t0 -77t-29 -70.5t-58 -52t-87 -20q-75 0 -126 50t-51 131t51 130.5t126 49.5z" />
<glyph horiz-adv-x="635" d="M262 661q0 34 27 47.5t54 -0.5t27 -48t-27 -47.5t-54 0.5t-27 48zM480 -10l-3 2q0 -84 -47.5 -126.5t-117.5 -42.5t-114 28t-48 82h-80q2 -88 67 -137t176 -49q105 0 176 61.5t71 183.5v504h-78l-2 -90q-25 47 -75 72.5t-107 25.5q-109 0 -181.5 -69.5t-72.5 -186.5 q0 -118 72 -188.5t180 -69.5q55 0 105.5 25.5t78.5 74.5v-100zM299 429l-1 1q49 0 87.5 -20t58.5 -52t29 -70.5t0 -77t-29 -70.5t-58 -52t-87 -20q-75 0 -126 50t-51 131t51 130.5t126 49.5z" />
<glyph horiz-adv-x="609" d="M534 -15v-1q0 -118 -64.5 -179t-165.5 -61t-160 48t-66 136h79q16 -107 146 -107q66 0 109.5 41.5t43.5 123.5v93q-57 -85 -173 -87q-96 0 -155.5 61.5t-59.5 167.5v273h82v-272q0 -72 40 -113t110 -41q67 1 109.5 47t42.5 114v265h82v-509z" />
<glyph horiz-adv-x="609" d="M250 578l72 123h99v-3l-97 -125h-74v5zM75 -72l3 3q7 -88 66 -136t160 -48t165.5 61t64.5 179v509h-82v-265q0 -68 -42.5 -114.5t-109.5 -47.5q-70 -1 -110 40t-40 113v272h-82v-273q0 -106 59.5 -167.5t154.5 -61.5q116 2 172 87v-93q0 -82 -43.5 -123.5t-109.5 -41.5 q-130 0 -147 107h-79z" />
<glyph horiz-adv-x="609" d="M134 578l141 129h52l140 -129v-6h-84l-83 75l-82 -75h-84v6zM534 -15v-1q0 -118 -64.5 -179t-165.5 -61t-160 48t-66 136h79q16 -107 146 -107q66 0 109.5 41.5t43.5 123.5v93q-57 -85 -173 -87q-96 0 -155.5 61.5t-59.5 167.5v273h82v-272q0 -72 40 -113t110 -41 q67 1 109.5 47t42.5 114v265h82v-509z" />
<glyph horiz-adv-x="609" d="M145 653q0 33 26 46t52 0t26 -46q0 -32 -26 -45.5t-52 0t-26 45.5zM369 653q0 33 26 46t52 0t26 -46q0 -32 -26 -45.5t-52 0t-26 45.5zM75 -72l3 3q7 -88 66 -136t160 -48t165.5 61t64.5 179v509h-82v-265q0 -68 -42.5 -114.5t-109.5 -47.5q-70 -1 -110 40t-40 113v272 h-82v-273q0 -106 59.5 -167.5t154.5 -61.5q116 2 172 87v-93q0 -82 -43.5 -123.5t-109.5 -41.5q-130 0 -147 107h-79z" />
<glyph horiz-adv-x="609" d="M189 698v3h99l72 -123v-5h-74zM534 -15v-1q0 -118 -64.5 -179t-165.5 -61t-160 48t-66 136h79q16 -107 146 -107q66 0 109.5 41.5t43.5 123.5v93q-57 -85 -173 -87q-96 0 -155.5 61.5t-59.5 167.5v273h82v-272q0 -72 40 -113t110 -41q67 1 109.5 47t42.5 114v265h82v-509 z" />
<glyph horiz-adv-x="389" d="M41 205q0 51 22.5 88.5t57 54t74 16.5t74 -17t57 -54t22.5 -88v-53q0 -51 -22.5 -88.5t-57 -54.5t-74 -17t-74 17t-57 54.5t-22.5 88.5v53zM106 151q0 -46 27.5 -72t60 -26.5t60 26t27.5 72.5v53q0 38 -18 64t-43.5 32.5t-51.5 0t-44 -32.5t-18 -64v-53z" />
<glyph horiz-adv-x="255" d="M36 57h63v230l-54 -14v58l120 29v-303h64v-57h-193v57z" />
<glyph horiz-adv-x="363" d="M40 0l1 1v87q0 99 142 112q75 5 75 56q0 54 -76 54q-73 0 -74 -52h-65q0 57 40.5 83.5t97.5 26.5q62 0 102 -26.5t40 -85.5q0 -33 -12 -55.5t-34 -33.5t-40.5 -15.5t-43.5 -6.5q-24 -3 -39.5 -6.5t-31 -17t-15.5 -34.5v-22h211v-65h-278z" />
<glyph horiz-adv-x="366" d="M104 105h-2q5 -50 77 -50q79 0 79 53q0 20 -19 36t-58 16h-56v54h52q74 0 74 48q0 18 -18.5 33.5t-55.5 15.5q-73 0 -77 -52h-59q0 54 40.5 80.5t96.5 26.5q57 0 98 -27t42 -78q0 -27 -14 -48t-39 -28q29 -8 45.5 -30.5t16.5 -46.5q0 -60 -43.5 -87t-105.5 -27 q-59 0 -100 27t-42 84h68z" />
<glyph horiz-adv-x="365" d="M285 361v-229h42v-59h-42v-72h-65v72h-192l-3 54l172 234h88zM220 132v166l-123 -166h123z" />
<glyph horiz-adv-x="362" d="M181 230l1 -1q69 0 108 -30.5t38 -88.5q0 -56 -39.5 -87t-105.5 -31q-61 0 -102 26t-42 84h64q0 -50 78 -50q80 0 80 59q0 61 -80 61h-134v189h259v-58h-196v-73h71z" />
<glyph horiz-adv-x="376" d="M112 195h-1q29 29 82 29q62 0 104 -26.5t42 -88.5q0 -58 -43.5 -86.5t-102.5 -28.5q-60 0 -103 30t-43 87v139q0 58 41.5 87.5t100.5 29.5q61 0 101.5 -25t42.5 -74h-65q-5 41 -78 41q-78 0 -78 -59v-55zM193 51v-1q33 0 56.5 14.5t23.5 44.5t-23.5 45t-56.5 15 t-57.5 -15t-24.5 -44q0 -30 24 -44.5t58 -14.5z" />
<glyph horiz-adv-x="317" d="M29 361h267l4 -29l-171 -332h-75l159 302h-184v59z" />
<glyph horiz-adv-x="384" d="M40 101h1q0 30 19 53.5t50 32.5q-62 22 -62 78q0 52 43 78t102 26t102.5 -25.5t43.5 -78.5q0 -57 -61 -78q30 -9 49 -33.5t19 -53.5q0 -58 -45.5 -84t-108.5 -25q-40 0 -72.5 9.5t-56 35t-23.5 65.5zM272 265v-1q0 26 -24.5 38.5t-54.5 12.5t-54.5 -12.5t-24.5 -37.5 q0 -26 22 -38.5t57 -12.5q34 0 56 12.5t23 38.5zM278 101v-2q0 27 -25.5 42.5t-59.5 15.5t-59.5 -14.5t-25.5 -42.5q0 -25 26 -39.5t59 -14.5t59 14.5t26 40.5z" />
<glyph horiz-adv-x="375" d="M328 110l1 -1q0 -58 -41.5 -87.5t-100.5 -29.5q-61 0 -101.5 25t-42.5 75h65q5 -41 78 -41q78 0 78 59v55q-29 -29 -82 -29q-62 0 -104 26.5t-42 88.5q0 58 43.5 86.5t102.5 28.5q60 0 103 -29.5t43 -86.5v-140zM182 308v2q-33 0 -56.5 -14.5t-23.5 -44.5t23.5 -45 t56.5 -15t57.5 15t24.5 43q0 30 -24 44.5t-58 14.5z" />
<glyph horiz-adv-x="389" d="M41 551v1q0 44 17 78.5t44 52t59.5 25.5t65.5 -0.5t60 -26t44 -52t17 -78.5v-53q0 -51 -22.5 -88.5t-57 -54.5t-74 -17t-74 17t-57 54.5t-22.5 88.5v53zM105 498q0 -46 27.5 -72t60 -26.5t60 26t27.5 72.5v54q0 38 -18 64t-43.5 32.5t-51.5 0t-44 -32.5t-18 -64v-54z" />
<glyph horiz-adv-x="258" d="M38 408h63v229l-54 -13v58l120 29v-303h64v-58h-193v58z" />
<glyph horiz-adv-x="365" d="M43 600l2 -1q0 57 40.5 83.5t97.5 26.5q62 0 102 -26.5t40 -85.5q0 -27 -9.5 -47.5t-22 -32t-33.5 -18.5t-35 -9.5t-35 -4.5q-81 -7 -81 -57v-21h212v-65h-279v87q0 98 132 110q84 7 84 59q0 54 -76 54q-73 0 -74 -52h-65z" />
<glyph horiz-adv-x="367" d="M105 448l-2 1q5 -50 77 -50q79 0 79 52q0 20 -19 36t-58 16h-56v54h52q74 0 74 48q0 18 -18.5 33.5t-55.5 15.5q-73 0 -77 -52h-59q0 54 40.5 80.5t96.5 26.5q57 0 98 -27t42 -78q0 -27 -14.5 -47.5t-38.5 -27.5q29 -8 45.5 -30.5t16.5 -47.5q0 -60 -43.5 -87t-105.5 -27 q-59 0 -100 27t-42 84h68z" />
<glyph horiz-adv-x="365" d="M285 702v-229h42v-59h-42v-72h-65v72h-192l-3 54l172 234h88zM220 473v166l-123 -166h123z" />
<glyph horiz-adv-x="361" d="M180 570v-1q69 0 108 -30.5t39 -88.5q0 -55 -39 -86.5t-105 -31.5q-61 0 -102 26t-42 84h64q0 -50 78 -50q80 0 80 59q0 61 -81 61h-133v189h259v-58h-196v-73h70z" />
<glyph horiz-adv-x="376" d="M112 538l-1 1q29 29 82 29q62 0 104 -26.5t42 -89.5q0 -58 -43.5 -86.5t-102.5 -28.5q-60 0 -103 29.5t-43 86.5v140q0 58 41.5 87.5t100.5 29.5q61 0 101.5 -25t42.5 -74h-65q-5 41 -78 41q-78 0 -78 -59v-55zM192 395q33 0 56.5 14t23.5 44t-23.5 45t-56.5 15 t-57.5 -15t-24.5 -44q0 -30 24 -44.5t58 -14.5z" />
<glyph horiz-adv-x="317" d="M29 701h267l4 -29l-171 -332h-75l159 301h-184v60z" />
<glyph horiz-adv-x="385" d="M39 443l2 -3q0 30 19 53.5t49 32.5q-62 22 -62 79q0 52 43 78t102 26t102.5 -25.5t43.5 -77.5q0 -56 -60 -78q30 -9 49 -33t19 -53q0 -58 -45.5 -84t-108.5 -25q-63 0 -108 26t-45 84zM272 603q0 26 -24 38.5t-54 12.5q-31 0 -55 -12.5t-23 -38.5q0 -26 22 -38.5 t56 -12.5t56 12.5t22 38.5zM279 440q0 27 -25.5 42.5t-59.5 15.5t-59.5 -14.5t-25.5 -43.5q0 -25 26 -39.5t59 -14.5t59 14.5t26 39.5z" />
<glyph horiz-adv-x="376" d="M263 510h2q-29 -29 -82 -29q-62 0 -104 26.5t-42 88.5q0 58 43.5 86.5t102.5 28.5q60 0 103 -30t43 -87v-139q0 -58 -42 -87.5t-101 -29.5q-61 0 -101.5 25t-42.5 74h65q5 -41 78 -41q78 0 78 59v55zM265 595v1q0 30 -24 44.5t-58 14.5q-33 0 -56.5 -14.5t-23.5 -44.5 t23.5 -45t56.5 -15t57.5 15t24.5 44z" />
<glyph d="M64 419q0 93 42 161.5t104.5 99t136 30.5t136 -30.5t104.5 -99t42 -161.5v-137q0 -93 -42 -161.5t-104.5 -99t-136 -30.5t-136 30.5t-104.5 99t-42 161.5v137zM152 282v-1q0 -45 13.5 -82.5t36 -62t51.5 -41.5t61.5 -20.5t64.5 0.5t61 21t51.5 41.5t36 62t13.5 82.5v137 q0 66 -29 114.5t-72 70.5t-93.5 22t-93.5 -21.5t-72 -70.5t-29 -115v-137z" />
<glyph d="M128 75h183v516l-168 -41v80l256 70v-625h194v-75h-465v75z" />
<glyph d="M75 506l-1 -1q2 57 27 98.5t66 63.5t86 31.5t97 9.5q53 0 99.5 -11t87 -34.5t64 -66t23.5 -98.5q0 -57 -23.5 -99t-63.5 -65t-86 -33.5t-100 -10.5q-190 -2 -190 -121v-86h461v-84h-550v170q0 57 24 98t65.5 62.5t87.5 31.5t100 10q31 0 61.5 6t60.5 19t48.5 39t18.5 62 q0 69 -55 101.5t-131 33.5q-49 0 -88.5 -10.5t-69.5 -40t-31 -75.5h-88z" />
<glyph d="M77 518l-2 1q0 53 24.5 92t65.5 60t85.5 30.5t94.5 9.5q116 0 190.5 -53t75.5 -144q0 -52 -35.5 -95.5t-89.5 -56.5q58 -14 98.5 -60t40.5 -101q0 -100 -79 -154.5t-202 -54.5q-40 0 -77.5 5.5t-75 20t-65 36.5t-44.5 57t-17 80h88q0 -36 19 -61t50.5 -37t61 -16.5 t62.5 -4.5q84 0 137 34.5t53 91.5q0 50 -46 87.5t-140 37.5h-113v73h107q80 0 130 33t51 83q1 48 -44.5 83.5t-134.5 35.5q-32 0 -60.5 -5t-58 -16t-46.5 -35t-17 -57h-87z" />
<glyph d="M546 700v-469h85v-84h-85v-147h-88v147h-404l-12 96l365 457h139zM458 626l-317 -395h317v395z" />
<glyph d="M364 439l1 1q127 0 196 -59t68 -161q0 -102 -74.5 -164t-198.5 -62q-55 0 -102.5 10.5t-88 33t-64 64.5t-23.5 99h89q0 -48 32 -77t70.5 -37.5t85.5 -8.5q84 0 134.5 37.5t50.5 103.5q0 63 -45 100.5t-131 37.5h-271v343h496v-83h-410v-178h185z" />
<glyph d="M162 350l1 -3q60 88 197 88q42 0 81.5 -7.5t76 -24.5t63.5 -42t43 -63.5t16 -85.5q0 -57 -24.5 -101t-65.5 -70t-89.5 -39t-101.5 -13q-73 0 -135.5 22.5t-105.5 75.5t-43 128v286q0 101 81.5 155.5t194.5 54.5q116 0 194 -48.5t82 -141.5h-90q-2 53 -55.5 83t-130.5 30 q-76 0 -132.5 -36t-56.5 -98v-150zM358 69v1q50 0 91.5 13t71.5 46t30 83q0 69 -57 107t-135 38q-79 0 -137.5 -37.5t-58.5 -107.5q0 -72 57.5 -107.5t137.5 -35.5z" />
<glyph d="M502 616h-407v84h516l7 -56l-350 -644h-103z" />
<glyph d="M51 196l2 2q0 57 38 102t97 62q-120 47 -120 150q0 68 42.5 115.5t103.5 67t133 19.5t133 -19.5t104.5 -66.5t43.5 -116q0 -51 -34 -90.5t-91 -58.5q58 -17 97 -64t40 -103q0 -56 -25.5 -98.5t-69 -66.5t-94 -35t-106.5 -11q-55 0 -105 11.5t-94 35t-69.5 66t-25.5 98.5z M537 516q1 61 -57.5 93t-132.5 32q-48 0 -90 -13t-70.5 -42.5t-28.5 -69.5q1 -59 59.5 -89t129.5 -30q72 0 130.5 30t59.5 89zM347 328v2q-46 0 -89.5 -11.5t-78.5 -43t-35 -76.5q0 -61 62.5 -95t140.5 -34q79 0 141 33.5t62 94.5q0 44 -34 75t-78 43t-91 12z" />
<glyph d="M531 352l-1 3q-60 -88 -196 -88q-42 0 -81.5 7.5t-76 24.5t-63.5 42t-43 63.5t-16 85.5q0 57 24.5 101t65.5 70t89.5 39t101.5 13q73 0 135.5 -22.5t105.5 -75.5t43 -128v-286q0 -101 -81.5 -155.5t-194.5 -54.5q-117 0 -195 48.5t-82 141.5h89q2 -53 56 -83t131 -30 q76 0 132.5 36t56.5 98v150zM335 633l-1 -1q-50 0 -91.5 -13t-71.5 -46t-30 -83q0 -72 56.5 -108.5t135.5 -36.5t137.5 37.5t58.5 107.5q0 72 -57.5 107.5t-136.5 35.5z" />
<glyph horiz-adv-x="393" d="M198 226l-1 -1q-49 0 -80.5 30t-31.5 80q0 49 32 79.5t81 30.5q47 0 78.5 -30.5t31.5 -79.5t-31.5 -79t-78.5 -30z" />
<glyph horiz-adv-x="258" d="M73 335q0 35 28 49.5t56 0t28 -48.5q0 -21 -11.5 -35.5t-28 -18t-33 0t-28 17.5t-11.5 35z" />
<glyph horiz-adv-x="341" d="M297 -78l-1 2q-99 -16 -140 20.5t-41 128.5v144q0 102 -75 102v62q75 0 75 102v137q0 92 42.5 130t138.5 20v-62q-57 11 -78 -9t-21 -82v-134q0 -29 -1 -43.5t-7 -36t-21.5 -34.5t-40.5 -20q26 -7 41.5 -20t21.5 -34.5t7 -36t1 -43.5v-141q0 -61 19.5 -79t79.5 -9v-64z " />
<glyph horiz-adv-x="340" d="M44 -14v1q60 -9 80 8.5t20 78.5v142q0 29 1 43.5t7 36t21.5 34.5t40.5 20q-21 6 -35 17t-21 21.5t-10.5 30t-4 30.5t-0.5 34v135q0 62 -21 82t-78 9v61q96 18 138.5 -20t42.5 -129v-138q0 -102 75 -102v-63q-75 0 -75 -102v-144q0 -92 -41 -128.5t-140 -20.5v63z" />
<glyph horiz-adv-x="343" d="M91 790h208v-75h-124v-734h124v-76h-208v885z" />
<glyph horiz-adv-x="343" d="M252 -95h-208v76h124v734h-124v75h208v-885z" />
<glyph horiz-adv-x="350" d="M318 743q-88 -65 -135 -166.5t-48 -216.5q-1 -118 45.5 -219t137.5 -169l-44 -62q-109 71 -167 191t-58 255q0 133 58.5 252.5t168.5 192.5z" />
<glyph horiz-adv-x="349" d="M73 803v-1q110 -72 168.5 -191.5t58.5 -251.5q0 -135 -58 -255t-167 -191l-43 63q91 68 137 168.5t45 218.5q-1 115 -48 216.5t-135 166.5z" />
<glyph horiz-adv-x="708" d="M74 375h560v-77h-560v77z" />
<glyph horiz-adv-x="606" d="M74 373h458v-77h-458v77z" />
<glyph horiz-adv-x="504" d="M73 378h358v-79h-358v79z" />
<glyph horiz-adv-x="491" d="M197 557h88l-137 -220l137 -221h-88l-138 221zM196 337l139 220h87l-136 -220l136 -221h-87z" />
<glyph horiz-adv-x="490" d="M155 122h-87l136 221l-136 220h87l138 -220zM431 343l-138 -221h-87l136 221l-136 220h87z" />
<glyph horiz-adv-x="354" d="M58 344l138 220h88l-137 -220l137 -221h-88z" />
<glyph horiz-adv-x="354" d="M158 120h-88l137 221l-137 220h88l138 -220z" />
<glyph d="M294 417l-1 -1h-144v72h144v39q0 85 44 132t123 47q59 0 111 -36l-33 -61q-42 25 -76 25q-87 0 -87 -107v-39h170v-72h-170v-418q0 -86 -40.5 -133t-118.5 -47q-52 0 -102 35l33 60q32 -24 67 -24q80 0 80 110v418z" />
<glyph d="M343 -16h1q-96 14 -156.5 81.5t-60.5 170.5q0 99 60 168t157 84v65h77v-65q85 -13 145 -73l-51 -52q-55 53 -131 53q-75 0 -126 -49t-51 -131q0 -83 50.5 -131.5t126.5 -48.5q71 0 130 57l52 -59q-62 -60 -146 -71v-71h-77v72z" />
<glyph d="M393 803v-1v-94q163 -17 221 -128l-74 -37q-23 41 -78 64t-113 23q-74 0 -131 -28.5t-56 -88.5q0 -23 11 -40t26 -28t43 -19.5t50.5 -13t59.5 -10.5q39 -6 60 -10t56.5 -12.5t55 -17.5t44.5 -25t37.5 -35t22 -46.5t9.5 -61.5q-1 -92 -74 -143.5t-171 -57.5v-98h-81v96 q-87 6 -158 43t-104 108l79 36q25 -51 88 -78.5t132 -27.5q48 0 90.5 11t75.5 40t33 73q0 31 -15.5 53.5t-48 36.5t-63 21.5t-77.5 15.5q-42 6 -67 11t-60.5 14.5t-57 22.5t-42.5 32t-31 47t-10 63q-1 90 69 138.5t168 57.5v94h81z" />
<glyph d="M615 8l2 -3q-60 -20 -123 -20q-148 0 -233 69.5t-112 193.5h-65v69h56q-1 4 -1 27q0 21 1 31h-56v70h67q24 119 111 192t231 73q50 0 103 -16l-25 -77q-37 10 -78 10q-203 0 -252 -182h253l-17 -70h-253q-1 -9 -1 -29q0 -19 1 -26h238l-15 -69h-207q44 -179 253 -179 q51 0 97 18z" />
<glyph d="M79 363l1 -1h75q-23 90 -23 132q0 103 68 159t178 56q103 0 166.5 -46.5t66.5 -147.5h-80q-4 117 -153 117q-76 0 -118 -36.5t-42 -99.5q0 -37 22 -132h235v-74h-220q19 -134 -71 -206h432v-83h-537v81q61 46 80 95.5t11 111.5h-91v74z" />
<glyph d="M145 210h155v57h-155v67h122l-238 363v3h104l212 -332l215 332h105v-3l-243 -363h124v-67h-157v-57h157v-66h-157v-144h-89v144h-155v66z" />
<glyph horiz-adv-x="266" d="M174 756v-832h-82v832h82z" />
<glyph horiz-adv-x="502" d="M250 698v-1q35 -9 35 -45q0 -33 -27 -46t-54 1t-27 47q0 4 6 22t18 53t20 59h55z" />
<glyph horiz-adv-x="0" />
<glyph horiz-adv-x="316" d="M51 508l49 60l-77 18q-15 5 -15.5 22t10 30t24.5 8l76 -26l-4 69q0 25 31 25t33 -25l-4 -69l76 26q14 5 24.5 -8t10 -30t-15.5 -22l-77 -18l49 -60q13 -16 3 -32.5t-27 -17.5t-28 14l-43 63l-43 -63q-9 -17 -28 -14t-27 18t3 32z" />
</font>
</defs>
</svg>
